aoloffline
版主

[2018] [欧美] [喜剧] [WEB-1080P] [ВТ下载]牧师与职业者 2018.1080p.AMZN.WEBRip.DDP2.0.x264-CM 2.45GB

-->

The.Pastor.and.The.Pro.2018.1080p.AMZN.WEBRip.DDP2.0.x264-CM

◎译  名 牧师与职业者

◎片  名 The Pastor and The Pro

◎年  代 2018

◎产  地 美国

◎类  别 喜剧

◎语  言 英语

◎上映日期 1988-05-25(美国)

◎IMDb评分 N/A

◎IMDb链接 https://www.imdb.com/title/tt7952840/

◎BT之家整理 http://www.btbtt.us/

◎片  长 1h 20min 

◎导  演 Matthew Wilson

◎主  演 Kelly Cunningham ... Rachel

      Travis Lincoln Cox ... Jacob

      Jeffrey Arrington ... Phil

      Andrew Tribolini ... Dr. Callahan





◎简  介  


  A young, single pastor needs a date quick for a big church dinner so he hires a prostitute to accompany him. But as she becomes more entangled in his life, her demands become more ...



Video
ID : 1
Format : AVC
Format/Info : Advanced Video Codec
Format profile : High@L4
Format settings : CABAC / 4 Ref Frames
Format settings, CABAC : Yes
Format settings, ReFrames : 4 frames
Codec ID : V_MPEG4/ISO/AVC
Duration : 1 h 17 min
Bit rate : 4 271 kb/s
Width : 1 920 pixels
Height : 1 080 pixels
Display aspect ratio : 16:9
Frame rate mode : Constant
Frame rate : 23.976 (24000/1001) FPS
Color space : YUV
Chroma subsampling : 4:2:0
Bit depth : 8 bits
Scan type : Progressive
Bits/(Pixel*Frame) : 0.086
Stream size : 2.33 GiB (95%)
Default : Yes
Forced : No
Color range : Limited
Color primaries : BT.709
Transfer characteristics : BT.709
Matrix coefficients : BT.709

Audio
ID : 2
Format : E-AC-3
Format/Info : Enhanced AC-3
Commercial name : Dolby Digital Plus
Codec ID : A_EAC3
Duration : 1 h 17 min
Bit rate mode : Constant
Bit rate : 224 kb/s
Channel(s) : 2 channels
Channel layout : L R
Sampling rate : 48.0 kHz
Frame rate : 31.250 FPS (1536 SPF)
Compression mode : Lossy
Stream size : 125 MiB (5%)
Title : English
Language : English
Service kind : Complete Main
Default : Yes
Forced : No

Text
ID : 3
Format : UTF-8
Codec ID : S_TEXT/UTF8
Codec ID/Info : UTF-8 Plain Text
Duration : 1 h 14 min
Bit rate : 83 b/s
Count of elements : 1638
Stream size : 45.3 KiB (0%)
Title : English [SDH]
Language : English
Default : No
Forced : No



1 个附件 售价 大小 下载 时间

The.Pastor.and.The.Pro.2018.1080p.AMZN.WEBRip.DDP2.0.x264-CM[btbtt.me].torrent 0 金币 49.54K 210 次 7天前

#1楼
发帖时间:2018-11-09 17:54:24   |   回复数:3
911degrees
隐世仙人♂
非常感谢,谢谢分享
7天前 #2楼
liyouchai
超凡入圣№
谢谢楼主分享资源
6天前 #3楼
blue23
隐世仙人♂
感谢楼主分享
5天前 #4楼
游客组