aoloffline
版主

[更 早] [欧美] [动作] [BD-4K] [ВТ下载]第一滴血3 1988.2160p.UHD.BluRay.X265.10bit.HDR.DTS-HD.MA.5.1-IAMABLE 31GB

-->

Rambo.III.1988.2160p.UHD.BluRay.X265.10bit.HDR.DTS-HD.MA.5.1-IAMABLE

◎译  名 第一滴血3 / 兰博3

◎片  名 Rambo III

◎年  代 1988

◎产  地 美国

◎类  别 动作 / 惊悚 / 冒险

◎语  言 英语 / 俄语

◎上映日期 1988-05-25(美国)

◎IMDb评分 5.8/10 from 105225 users

◎IMDb链接 http://www.imdb.com/title/tt0095956

◎豆瓣评分 7.5/10 from 21861 users

◎豆瓣链接 https://movie.douban.com/subject/1300399/

◎BT之家整理 http://www.btbtt.us/

◎片  长 102 分钟

◎导  演 Peter MacDonald

◎编  剧 David Morrell / Sylvester Stallone / Sheldon Lettich

◎主  演 Sylvester Stallone

      Richard Crenna

      Marc de Jonge

      Kurtwood Smith

      Spiros Focás

      Sasson Gabai





◎简  介  


  历经无数战火与生死考验,孔武有力的豪情勇士约翰·兰博(西尔维斯特·史泰龙 Sylvester Stallone 饰)放下手中的杀人武器,在泰国过起了平静的修行生活。这一日,特劳特曼上校(理查德·克里纳 Richard Crenna 饰)突然出现在他面前。此前不久,上校受命率部队前往阿富汗,协助当地的圣战勇士反抗苏联人的入侵。虽然照片中阿富汗平民饱受外敌侵略和蹂躏的情景触目惊心,但兰博还是拒绝了上校的邀请。某晚,特劳特曼的部队在执行任务途中遭到苏联军队的伏击,其本人也不幸沦为阶下囚。得知这一消息,兰博再也无法静观其变。浴血战士重披战甲,只身闯入充满凶险的阿富汗腹地,展开一场紧张纷呈的绝命营救……

本片获1989年金酸梅最差男主角奖。


Video
ID : 1
Format : HEVC
Format/Info : High Efficiency Video Coding
Commercial name : HDR10
Format profile : Main 10@L5.1@High
Codec ID : V_MPEGH/ISO/HEVC
Duration : 1 h 41 min
Bit rate : 37.7 Mb/s
Width : 3 840 pixels
Height : 1 634 pixels
Display aspect ratio : 2.35:1
Frame rate mode : Constant
Frame rate : 24.000 FPS
Color space : YUV
Chroma subsampling : 4:2:0 (Type 2)
Bit depth : 10 bits
Bits/(Pixel*Frame) : 0.250
Stream size : 26.7 GiB (86%)
Writing library : x265 2.8 58-d17bc7714ed2:[Windows][GCC 8.2.0][64 bit] 10bit
Encoding settings : cpuid=1176575 / frame-threads=5 / numa-pools=32 / wpp / no-pmode / no-pme / no-psnr / no-ssim / log-level=2 / input-csp=1 / input-res=3840x1634 / interlace=0 / total-frames=146063 / level-idc=51 / high-tier=1 / uhd-bd=0 / ref=4 / no-allow-non-conformance / repeat-headers / annexb / aud / hrd / info / hash=0 / no-temporal-layers / no-open-gop / min-keyint=24 / keyint=240 / gop-lookahead=0 / bframes=4 / b-adapt=2 / b-pyramid / bframe-bias=0 / rc-lookahead=25 / lookahead-slices=4 / scenecut=40 / radl=0 / no-intra-refresh / ctu=64 / min-cu-size=8 / rect / no-amp / max-tu-size=32 / tu-inter-depth=1 / tu-intra-depth=1 / limit-tu=0 / rdoq-level=2 / dynamic-rd=0.00 / no-ssim-rd / signhide / no-tskip / nr-intra=0 / nr-inter=0 / no-constrained-intra / no-strong-intra-smoothing / max-merge=3 / limit-refs=3 / limit-modes / me=3 / subme=3 / merange=57 / temporal-mvp / weightp / no-weightb / no-analyze-src-pics / deblock=-3:-3 / no-sao / no-sao-non-deblock / rd=4 / no-early-skip / rskip / no-fast-intra / no-tskip-fast / no-cu-lossless / no-b-intra / no-splitrd-skip / rdpenalty=0 / psy-rd=2.00 / psy-rdoq=1.00 / no-rd-refine / no-lossless / cbqpoffs=0 / crqpoffs=0 / rc=crf / crf=18.3 / qcomp=0.60 / qpstep=4 / stats-write=0 / stats-read=0 / vbv-maxrate=160000 / vbv-bufsize=160000 / vbv-init=0.9 / crf-max=0.0 / crf-min=0.0 / ipratio=1.40 / pbratio=1.30 / aq-mode=1 / aq-strength=1.00 / cutree / zone-count=0 / no-strict-cbr / qg-size=32 / no-rc-grain / qpmax=69 / qpmin=0 / no-const-vbv / sar=1 / overscan=0 / videoformat=5 / range=0 / colorprim=9 / transfer=16 / colormatrix=9 / chromaloc=1 / chromaloc-top=2 / chromaloc-bottom=2 / display-window=0 / master-display=G(13250,34500)B(7500,3000)R(34000,16000)WP(15635,16450)L(10000000,50) / max-cll=479,468 / min-luma=0 / max-luma=1023 / log2-max-poc-lsb=8 / vui-timing-info / vui-hrd-info / slices=1 / no-opt-qp-pps / no-opt-ref-list-length-pps / no-multi-pass-opt-rps / scenecut-bias=0.05 / no-opt-cu-delta-qp / no-aq-motion / hdr / hdr-opt / no-dhdr10-opt / no-idr-recovery-sei / analysis-reuse-level=5 / scale-factor=0 / refine-intra=0 / refine-inter=0 / refine-mv=0 / no-limit-sao / ctu-info=0 / no-lowpass-dct / refine-mv-type=0 / copy-pic=1 / max-ausize-factor=1.0 / no-dynamic-refine / no-single-sei
Default : Yes
Forced : No
Color range : Limited
Color primaries : BT.2020
Transfer characteristics : PQ
Matrix coefficients : BT.2020 non-constant
Mastering display color primaries : Display P3
Mastering display luminance : min: 0.0050 cd/m2, max: 1000 cd/m2
Maximum Content Light Level : 479 cd/m2
Maximum Frame-Average Light Level : 468 cd/m2

Audio #1
ID : 2
Format : DTS XLL
Format/Info : Digital Theater Systems
Commercial name : DTS-HD Master Audio
Codec ID : A_DTS
Duration : 1 h 41 min
Bit rate mode : Variable
Bit rate : 4 242 kb/s
Channel(s) : 6 channels
Channel layout : C L R Ls Rs LFE
Sampling rate : 48.0 kHz
Frame rate : 93.750 FPS (512 SPF)
Bit depth : 24 bits
Compression mode : Lossless
Stream size : 3.01 GiB (10%)
Title : DTS-HD MA 5.1
Language : English
Default : Yes
Forced : No

Audio #2
ID : 3
Format : DTS XLL
Format/Info : Digital Theater Systems
Commercial name : DTS-HD Master Audio
Codec ID : A_DTS
Duration : 1 h 41 min
Bit rate mode : Variable
Bit rate : 2 075 kb/s
Channel(s) : 2 channels
Channel layout : L R
Sampling rate : 48.0 kHz
Frame rate : 93.750 FPS (512 SPF)
Bit depth : 24 bits
Compression mode : Lossless
Stream size : 1.47 GiB (5%)
Title : Commentary by Director Peter MacDonald
Language : English
Default : No
Forced : No

Text #1
ID : 4
Format : UTF-8
Codec ID : S_TEXT/UTF8
Codec ID/Info : UTF-8 Plain Text
Duration : 18 min 49 s
Bit rate : 1 b/s
Count of elements : 12
Stream size : 258 Bytes (0%)
Title : Forced SRT
Language : English
Default : Yes
Forced : Yes

Text #2
ID : 5
Format : PGS
Muxing mode : zlib
Codec ID : S_HDMV/PGS
Codec ID/Info : Picture based subtitle format used on BDs/HD-DVDs
Duration : 18 min 49 s
Bit rate : 1 212 b/s
Count of elements : 24
Stream size : 167 KiB (0%)
Title : Forced
Language : English
Default : No
Forced : No

Text #3
ID : 6
Format : UTF-8
Codec ID : S_TEXT/UTF8
Codec ID/Info : UTF-8 Plain Text
Duration : 1 h 30 min
Bit rate : 22 b/s
Count of elements : 483
Stream size : 15.0 KiB (0%)
Title : Full SRT
Language : English
Default : No
Forced : No

Text #4
ID : 7
Format : PGS
Muxing mode : zlib
Codec ID : S_HDMV/PGS
Codec ID/Info : Picture based subtitle format used on BDs/HD-DVDs
Duration : 1 h 30 min
Bit rate : 13.7 kb/s
Count of elements : 966
Stream size : 8.90 MiB (0%)
Title : Full
Language : English
Default : No
Forced : No

Text #5
ID : 8
Format : PGS
Muxing mode : zlib
Codec ID : S_HDMV/PGS
Codec ID/Info : Picture based subtitle format used on BDs/HD-DVDs
Duration : 1 h 32 min
Bit rate : 12.9 kb/s
Count of elements : 1070
Stream size : 8.61 MiB (0%)
Language : French
Default : No
Forced : No

Text #6
ID : 9
Format : PGS
Muxing mode : zlib
Codec ID : S_HDMV/PGS
Codec ID/Info : Picture based subtitle format used on BDs/HD-DVDs
Duration : 31 min 54 s
Bit rate : 943 b/s
Count of elements : 26
Stream size : 221 KiB (0%)
Title : Commentary by Director Peter MacDonald
Language : French
Default : No
Forced : No

Text #7
ID : 10
Format : PGS
Muxing mode : zlib
Codec ID : S_HDMV/PGS
Codec ID/Info : Picture based subtitle format used on BDs/HD-DVDs
Duration : 1 h 33 min
Bit rate : 15.0 kb/s
Count of elements : 984
Stream size : 9.96 MiB (0%)
Language : German
Default : No
Forced : No

Text #8
ID : 11
Format : PGS
Muxing mode : zlib
Codec ID : S_HDMV/PGS
Codec ID/Info : Picture based subtitle format used on BDs/HD-DVDs
Duration : 1 h 40 min
Bit rate : 24.2 kb/s
Count of elements : 1244
Stream size : 17.5 MiB (0%)
Title : Commentary by Director Peter MacDonald
Language : German
Default : No
Forced : No

Menu
00:00:00.000 : :Chapter 01
00:07:19.541 : :Chapter 02
00:14:30.250 : :Chapter 03
00:25:23.000 : :Chapter 04
00:30:14.250 : :Chapter 05
00:36:19.250 : :Chapter 06
00:48:47.166 : :Chapter 07
00:58:49.375 : :Chapter 08
01:09:51.875 : :Chapter 09
01:17:14.958 : :Chapter 10
01:26:29.500 : :Chapter 11
01:34:47.166 : :Chapter 12



1 个附件 售价 大小 下载 时间

Rambo.III.1988.2160p.UHD.BluRay.X265.10bit.HDR.DTS-HD.MA.5.1-IAMABLE[btbtt.me].torrent 0 金币 79.56K 917 次 7天前

#1楼
发帖时间:2018-11-09 17:49:09   |   回复数:3
911degrees
隐世仙人♂
非常感谢,谢谢分享
7天前 #2楼
liyouchai
超凡入圣№
谢谢楼主分享资源
7天前 #3楼
blue23
隐世仙人♂
感谢楼主分享
5天前 #4楼
游客组