aoloffline
版主

[更 早] [欧美] [动作] [BD-4K] [ВТ下载]第一滴血 1982.2160p.UHD.BluRay.X265.10bit.HDR.DTS-HD.MA.5.1-IAMABLE 31GB

-->

Rambo.First.Blood.1982.2160p.UHD.BluRay.X265.10bit.HDR.DTS-HD.MA.5.1-IAMABLE

◎译  名 第一滴血 / Rambo: First Blood / 兰博

◎片  名 First Blood

◎年  代 1982

◎产  地 美国

◎类  别 剧情 / 动作 / 惊悚 / 冒险

◎语  言 英语

◎上映日期 1982-10-22

◎IMDb评分 7.7/10 from 195639 users

◎IMDb链接 http://www.imdb.com/title/tt0083944

◎豆瓣评分 8.2/10 from 49640 users

◎豆瓣链接 https://movie.douban.com/subject/1294323/

◎BT之家整理 http://www.btbtt.us/

◎片  长 93 分钟

◎导  演 Ted Kotcheff

◎编  剧 Sylvester Stallone / Michael Kozoll

◎主  演 Sylvester Stallone

      Richard Crenna

      Brian Dennehy

      Bill McKinney

      Jack Starrett




◎简  介  


  退伍军人兰博(西尔维斯特•史泰龙Sylvester Stallone 饰)从越南回国,他回到已显得陌生的原居小镇,当地警长(布莱恩•丹内利 Brian Dennehy 饰)看到这个退伍军人的第一眼起,就开始对兰博百般挑剔,甚至将他带回警局肆意侮辱,不堪忍受责打的兰博袭警之后逃跑。警长召集大批警察展开对兰博的追捕,兰博逃至荒山野林之中,不断用自己在越战中掌握的游击战术对警察展开反击,他抢劫了一辆武器运输车返回小镇烧毁了商店,法律和武器都不能阻止兰博了。兰博在越战时的长官上校(理查德•克里纳 Richard Crenna  饰)出现,劝说兰博放下枪械,愤懑已久的兰博吼出了自己的困惑与不甘……


Video
ID : 1
Format : HEVC
Format/Info : High Efficiency Video Coding
Commercial name : HDR10
Format profile : Main 10@L5.1@High
Codec ID : V_MPEGH/ISO/HEVC
Duration : 1 h 33 min
Bit rate : 44.0 Mb/s
Width : 3 840 pixels
Height : 1 636 pixels
Display aspect ratio : 2.35:1
Frame rate mode : Constant
Frame rate : 24.000 FPS
Color space : YUV
Chroma subsampling : 4:2:0 (Type 2)
Bit depth : 10 bits
Bits/(Pixel*Frame) : 0.292
Stream size : 28.7 GiB (91%)
Writing library : x265 2.8 66-88ee12651e30:[Windows][GCC 6.3.0][64 bit] 10bit
Encoding settings : cpuid=1049583 / frame-threads=5 / numa-pools=32 / wpp / no-pmode / no-pme / no-psnr / no-ssim / log-level=2 / input-csp=1 / input-res=3840x1636 / interlace=0 / total-frames=134525 / level-idc=51 / high-tier=1 / uhd-bd=0 / ref=4 / no-allow-non-conformance / repeat-headers / annexb / aud / hrd / info / hash=0 / no-temporal-layers / no-open-gop / min-keyint=24 / keyint=240 / gop-lookahead=0 / bframes=4 / b-adapt=2 / b-pyramid / bframe-bias=0 / rc-lookahead=25 / lookahead-slices=4 / scenecut=40 / radl=0 / no-intra-refresh / ctu=64 / min-cu-size=8 / rect / no-amp / max-tu-size=32 / tu-inter-depth=1 / tu-intra-depth=1 / limit-tu=0 / rdoq-level=2 / dynamic-rd=0.00 / no-ssim-rd / signhide / no-tskip / nr-intra=0 / nr-inter=0 / no-constrained-intra / no-strong-intra-smoothing / max-merge=3 / limit-refs=3 / limit-modes / me=3 / subme=3 / merange=57 / temporal-mvp / weightp / no-weightb / no-analyze-src-pics / deblock=-3:-3 / no-sao / no-sao-non-deblock / rd=4 / no-early-skip / rskip / no-fast-intra / no-tskip-fast / no-cu-lossless / no-b-intra / no-splitrd-skip / rdpenalty=0 / psy-rd=2.00 / psy-rdoq=1.00 / no-rd-refine / no-lossless / cbqpoffs=0 / crqpoffs=0 / rc=crf / crf=17.0 / qcomp=0.60 / qpstep=4 / stats-write=0 / stats-read=0 / vbv-maxrate=160000 / vbv-bufsize=160000 / vbv-init=0.9 / crf-max=0.0 / crf-min=0.0 / ipratio=1.40 / pbratio=1.30 / aq-mode=1 / aq-strength=1.00 / cutree / zone-count=0 / no-strict-cbr / qg-size=32 / no-rc-grain / qpmax=69 / qpmin=0 / no-const-vbv / sar=1 / overscan=0 / videoformat=5 / range=0 / colorprim=9 / transfer=16 / colormatrix=9 / chromaloc=1 / chromaloc-top=2 / chromaloc-bottom=2 / display-window=0 / master-display=G(13250,34500)B(7500,3000)R(34000,16000)WP(15635,16450)L(10000000,01) / max-cll=479,433 / min-luma=0 / max-luma=1023 / log2-max-poc-lsb=8 / vui-timing-info / vui-hrd-info / slices=1 / opt-qp-pps / opt-ref-list-length-pps / no-multi-pass-opt-rps / scenecut-bias=0.05 / no-opt-cu-delta-qp / no-aq-motion / hdr / hdr-opt / no-dhdr10-opt / no-idr-recovery-sei / analysis-reuse-level=5 / scale-factor=0 / refine-intra=0 / refine-inter=0 / refine-mv=0 / no-limit-sao / ctu-info=0 / no-lowpass-dct / refine-mv-type=0 / copy-pic=1 / max-ausize-factor=1.0 / no-dynamic-refine / no-single-sei
Default : Yes
Forced : No
Color range : Limited
Color primaries : BT.2020
Transfer characteristics : PQ
Matrix coefficients : BT.2020 non-constant
Mastering display color primaries : Display P3
Mastering display luminance : min: 0.0001 cd/m2, max: 1000 cd/m2
Maximum Content Light Level : 479 cd/m2
Maximum Frame-Average Light Level : 433 cd/m2

Audio #1
ID : 2
Format : DTS XLL
Format/Info : Digital Theater Systems
Commercial name : DTS-HD Master Audio
Codec ID : A_DTS
Duration : 1 h 33 min
Bit rate mode : Variable
Bit rate : 3 407 kb/s
Channel(s) : 6 channels
Channel layout : C L R Ls Rs LFE
Sampling rate : 48.0 kHz
Frame rate : 93.750 FPS (512 SPF)
Bit depth : 24 bits
Compression mode : Lossless
Stream size : 2.22 GiB (7%)
Title : DTS-HD NA 5.1
Language : English
Default : Yes
Forced : No

Audio #2
ID : 3
Format : DTS
Format/Info : Digital Theater Systems
Codec ID : A_DTS
Duration : 1 h 33 min
Bit rate mode : Constant
Bit rate : 318 kb/s
Channel(s) : 2 channels
Channel layout : L R
Sampling rate : 48.0 kHz
Frame rate : 93.750 FPS (512 SPF)
Bit depth : 24 bits
Compression mode : Lossy
Stream size : 212 MiB (1%)
Title : Commentary by Sylvester Stallone
Language : English
Default : No
Forced : No

Audio #3
ID : 4
Format : DTS
Format/Info : Digital Theater Systems
Codec ID : A_DTS
Duration : 1 h 33 min
Bit rate mode : Constant
Bit rate : 318 kb/s
Channel(s) : 2 channels
Channel layout : L R
Sampling rate : 48.0 kHz
Frame rate : 93.750 FPS (512 SPF)
Bit depth : 24 bits
Compression mode : Lossy
Stream size : 212 MiB (1%)
Title : Commentary by author David Morrell
Language : English
Default : No
Forced : No

Text #1
ID : 5
Format : UTF-8
Codec ID : S_TEXT/UTF8
Codec ID/Info : UTF-8 Plain Text
Duration : 1 h 30 min
Bit rate : 32 b/s
Count of elements : 608
Stream size : 21.7 KiB (0%)
Title : Full SRT
Language : English
Default : No
Forced : No

Text #2
ID : 6
Format : PGS
Muxing mode : zlib
Codec ID : S_HDMV/PGS
Codec ID/Info : Picture based subtitle format used on BDs/HD-DVDs
Duration : 1 h 30 min
Bit rate : 15.9 kb/s
Count of elements : 1216
Stream size : 10.3 MiB (0%)
Title : Full
Language : English
Default : No
Forced : No

Text #3
ID : 7
Format : PGS
Muxing mode : zlib
Codec ID : S_HDMV/PGS
Codec ID/Info : Picture based subtitle format used on BDs/HD-DVDs
Duration : 1 h 32 min
Bit rate : 13.7 kb/s
Count of elements : 1354
Stream size : 9.05 MiB (0%)
Language : French
Default : No
Forced : No

Text #4
ID : 8
Format : PGS
Muxing mode : zlib
Codec ID : S_HDMV/PGS
Codec ID/Info : Picture based subtitle format used on BDs/HD-DVDs
Duration : 1 h 32 min
Bit rate : 37.2 kb/s
Count of elements : 2626
Stream size : 24.7 MiB (0%)
Title : Commentary by Sylvester Stallone
Language : French
Default : No
Forced : No

Text #5
ID : 9
Format : PGS
Muxing mode : zlib
Codec ID : S_HDMV/PGS
Codec ID/Info : Picture based subtitle format used on BDs/HD-DVDs
Duration : 1 h 32 min
Bit rate : 43.6 kb/s
Count of elements : 3126
Stream size : 29.0 MiB (0%)
Title : Commentary by author David Morrell
Language : French
Default : No
Forced : No

Text #6
ID : 10
Format : PGS
Muxing mode : zlib
Codec ID : S_HDMV/PGS
Codec ID/Info : Picture based subtitle format used on BDs/HD-DVDs
Duration : 1 h 28 min
Bit rate : 18.7 kb/s
Count of elements : 1374
Stream size : 11.8 MiB (0%)
Language : German
Default : No
Forced : No

Text #7
ID : 11
Format : PGS
Muxing mode : zlib
Codec ID : S_HDMV/PGS
Codec ID/Info : Picture based subtitle format used on BDs/HD-DVDs
Duration : 1 h 32 min
Bit rate : 42.2 kb/s
Count of elements : 2602
Stream size : 28.0 MiB (0%)
Title : Commentary by Sylvester Stallone
Language : German
Default : No
Forced : No

Text #8
ID : 12
Format : PGS
Muxing mode : zlib
Codec ID : S_HDMV/PGS
Codec ID/Info : Picture based subtitle format used on BDs/HD-DVDs
Duration : 1 h 31 min
Bit rate : 49.1 kb/s
Count of elements : 2896
Stream size : 31.9 MiB (0%)
Title : Commentary by author David Morrell
Language : German
Default : No
Forced : No

Menu
00:00:00.000 : :00:00:00.000
00:10:13.167 : :00:10:13.167
00:20:49.208 : :00:20:49.208
00:30:31.417 : :00:30:31.417
00:38:40.833 : :00:38:40.833
00:47:38.625 : :00:47:38.625
00:56:32.708 : :00:56:32.708
01:06:07.125 : :01:06:07.125
01:16:08.583 : :01:16:08.583
01:24:46.167 : :01:24:46.167



1 个附件 售价 大小 下载 时间

Rambo.First.Blood.1982.2160p.UHD.BluRay.X265.10bit.HDR.DTS-HD.MA.5.1-IAMABLE[btbtt.me].torrent 0 金币 80.16K 959 次 7天前

#1楼
发帖时间:2018-11-09 17:46:38   |   回复数:3
911degrees
隐世仙人♂
非常感谢,谢谢分享
7天前 #2楼
liyouchai
超凡入圣№
谢谢楼主分享资源
7天前 #3楼
blue23
隐世仙人♂
感谢楼主分享
5天前 #4楼
游客组