aoloffline
版主

[2018] [欧美] [剧情] [WEB-1080P] [ВТ下载]赛迪 Sadie.2018.1080p.AMZN.WEBRip.DDP5.1.x264-CM 2.51GB

-->

Sadie.2018.1080p.AMZN.WEBRip.DDP5.1.x264-CM

◎译  名 赛迪

◎片  名 Sadie

◎年  代 2018

◎产  地 美国

◎类  别 剧情

◎语  言 英语

◎上映日期 2018-03-10(西南偏南电影节)

◎IMDb评分 7.3/10 from 80 users

◎IMDb链接 http://www.imdb.com/title/tt6504868

◎BT之家整理 http://www.btbtt.us/

◎导  演 梅根·格里芬 Megan Griffiths

◎编  剧 梅根·格里芬 Megan Griffiths

◎主  演 梅兰妮·林斯基 Melanie Lynskey

      小约翰·加拉赫 John Gallagher Jr.

      托尼·海尔 Tony Hale

      丹尼尔·布鲁克斯 Danielle Brooks

      索菲亚·米特·施洛斯 Sophia Mitri Schloss

      Claudine Mboligikpelani Nako

      Keith L. Williams

      Tony Doupe

      David Schultz

      John Paulsen

      Justin Thomas Howell

      Wally Dalton

      Jason Adkins

      Tee Dennard

      Joseph Steven Yang




◎简  介  


  13岁女孩赛迪的父亲常年在军队服役,当母亲开始新恋情后,她想方设法拆散他们。


Video
ID : 1
Format : AVC
Format/Info : Advanced Video Codec
Format profile : High@L4
Format settings : CABAC / 4 Ref Frames
Format settings, CABAC : Yes
Format settings, ReFrames : 4 frames
Codec ID : V_MPEG4/ISO/AVC
Duration : 1 h 36 min
Bit rate : 3 102 kb/s
Width : 1 920 pixels
Height : 1 040 pixels
Display aspect ratio : 1.85:1
Frame rate mode : Constant
Frame rate : 23.976 (24000/1001) FPS
Color space : YUV
Chroma subsampling : 4:2:0
Bit depth : 8 bits
Scan type : Progressive
Bits/(Pixel*Frame) : 0.065
Stream size : 2.08 GiB (83%)
Default : Yes
Forced : No
Color range : Limited
Color primaries : BT.709
Transfer characteristics : BT.709
Matrix coefficients : BT.709

Audio
ID : 2
Format : E-AC-3
Format/Info : Enhanced AC-3
Commercial name : Dolby Digital Plus
Codec ID : A_EAC3
Duration : 1 h 36 min
Bit rate mode : Constant
Bit rate : 640 kb/s
Channel(s) : 6 channels
Channel layout : L R C LFE Ls Rs
Sampling rate : 48.0 kHz
Frame rate : 31.250 FPS (1536 SPF)
Compression mode : Lossy
Stream size : 440 MiB (17%)
Title : English
Language : English
Service kind : Complete Main
Default : Yes
Forced : No

Text
ID : 3
Format : UTF-8
Codec ID : S_TEXT/UTF8
Codec ID/Info : UTF-8 Plain Text
Duration : 1 h 35 min
Bit rate : 55 b/s
Count of elements : 1565
Stream size : 38.7 KiB (0%)
Title : English [SDH]
Language : English
Default : No
Forced : No



1 个附件 售价 大小 下载 时间

Sadie.2018.1080p.AMZN.WEBRip.DDP5.1.x264-CM[btbtt.me].torrent 0 金币 50.80K 308 次 7天前

#1楼
发帖时间:2018-11-09 17:44:13   |   回复数:3
911degrees
隐世仙人♂
非常感谢,谢谢分享
7天前 #2楼
liyouchai
超凡入圣№
谢谢楼主分享资源
7天前 #3楼
blue23
隐世仙人♂
感谢楼主分享
5天前 #4楼
游客组