aoloffline
版主

[2018] [欧美] [喜剧] [BD-4K] [ВТ下载]黑色党徒 2018.2160p.UHD.BluRay.X265.10bit.HDR.TrueHD.7.1.Atmos-IAMABLE 25GB

-->

BlacKkKlansman.2018.2160p.UHD.BluRay.X265.10bit.HDR.TrueHD.7.1.Atmos-IAMABLE

◎译  名 黑色党徒 / Black Klansman

◎片  名 BlacKkKlansman

◎年  代 2018

◎产  地 美国

◎类  别 喜剧 / 传记 / 犯罪

◎语  言 英语

◎上映日期 2018-05-14(戛纳电影节) / 2018-08-10(美国)

◎IMDb评分 7.7/10 from 48102 users

◎IMDb链接 http://www.imdb.com/title/tt7349662

◎豆瓣评分 7.0/10 from 2865 users

◎豆瓣链接 https://movie.douban.com/subject/27133913/

◎BT之家整理 http://www.btbtt.us/

◎片  长 135分钟

◎导  演 斯派克·李 Spike Lee

◎编  剧 斯派克·李 Spike Lee / David Rabinowitz / Charlie Wachtel / 凯文·威尔默特 Kevin Willmott / Ron Stallworth

◎主  演 约翰·大卫·华盛顿 John David Washington

      亚历克·鲍德温 Alec Baldwin

      小伊塞亚·维特洛克 Isiah Whitlock Jr.

      罗伯特·约翰·伯克 Robert John Burke

      布赖恩·塔伦蒂诺 Brian Tarantina

      阿瑟·J·纳斯加勒拉 Arthur J. Nascarella

      根·加里托 Ken Garito

      弗雷德里克·韦勒 Frederick Weller

      亚当·德赖弗 Adam Driver

      迈克尔·布谢米 Michael Buscemi

      劳拉·哈里尔 Laura Harrier

      达马里斯·刘易斯 Damaris Lewis

      科里·霍金斯 Corey Hawkins

      法龙·索尔兹伯里 Faron Salisbury

      瑞安·艾戈尔德 Ryan Eggold

      加斯帕·帕科农 Jasper Pääkkönen

      保罗·沃尔特·豪泽 Paul Walter Hauser

      阿什莉·阿特金森 Ashlie Atkinson

      托弗·戈瑞斯 Topher Grace

      维克托·科利采奇奥 Victor Colicchio





◎简  介  


  《黑色党徒》根据2014年罗恩·斯塔尔沃斯所著的自传改编,讲述了一名科罗拉多州的黑人警察,成功潜入当地的3K党组织做卧底的故事。


◎获奖情况  


  第71届戛纳电影节(2018)

  主竞赛单元 金棕榈奖(提名) 斯派克·李

  主竞赛单元 评审团大奖 斯派克·李


  第71届洛迦诺国际电影节(2018)

  观众选择奖 斯派克·李


  第28届哥谭独立电影奖(2018)

  最佳男演员(提名) 亚当·德赖弗


  第22届好莱坞电影奖(2018)

  年度突破男演员 约翰·大卫·华盛顿


Video
ID : 1
Format : HEVC
Format/Info : High Efficiency Video Coding
Commercial name : HDR10
Format profile : Main 10@L5.1@High
Codec ID : V_MPEGH/ISO/HEVC
Duration : 2 h 14 min
Bit rate : 22.3 Mb/s
Width : 3 840 pixels
Height : 1 606 pixels
Display aspect ratio : 2.40:1
Frame rate mode : Constant
Frame rate : 23.976 (24000/1001) FPS
Color space : YUV
Chroma subsampling : 4:2:0 (Type 2)
Bit depth : 10 bits
Bits/(Pixel*Frame) : 0.151
Stream size : 21.0 GiB (83%)
Writing library : x265 2.8 58-d17bc7714ed2:[Windows][GCC 8.2.0][64 bit] 10bit
Encoding settings : cpuid=1111039 / frame-threads=5 / numa-pools=36 / wpp / no-pmode / no-pme / no-psnr / no-ssim / log-level=2 / input-csp=1 / input-res=3840x1606 / interlace=0 / total-frames=193944 / level-idc=51 / high-tier=1 / uhd-bd=0 / ref=4 / no-allow-non-conformance / repeat-headers / annexb / aud / hrd / info / hash=0 / no-temporal-layers / no-open-gop / min-keyint=24 / keyint=240 / gop-lookahead=0 / bframes=4 / b-adapt=2 / b-pyramid / bframe-bias=0 / rc-lookahead=25 / lookahead-slices=4 / scenecut=40 / radl=0 / no-intra-refresh / ctu=64 / min-cu-size=8 / rect / no-amp / max-tu-size=32 / tu-inter-depth=1 / tu-intra-depth=1 / limit-tu=0 / rdoq-level=2 / dynamic-rd=0.00 / no-ssim-rd / signhide / no-tskip / nr-intra=0 / nr-inter=0 / no-constrained-intra / no-strong-intra-smoothing / max-merge=3 / limit-refs=3 / limit-modes / me=3 / subme=3 / merange=57 / temporal-mvp / weightp / no-weightb / no-analyze-src-pics / deblock=-3:-3 / no-sao / no-sao-non-deblock / rd=4 / no-early-skip / rskip / no-fast-intra / no-tskip-fast / no-cu-lossless / no-b-intra / no-splitrd-skip / rdpenalty=0 / psy-rd=2.00 / psy-rdoq=1.00 / no-rd-refine / no-lossless / cbqpoffs=0 / crqpoffs=0 / rc=crf / crf=17.0 / qcomp=0.60 / qpstep=4 / stats-write=0 / stats-read=0 / vbv-maxrate=160000 / vbv-bufsize=160000 / vbv-init=0.9 / crf-max=0.0 / crf-min=0.0 / ipratio=1.40 / pbratio=1.30 / aq-mode=1 / aq-strength=1.00 / cutree / zone-count=0 / no-strict-cbr / qg-size=32 / no-rc-grain / qpmax=69 / qpmin=0 / no-const-vbv / sar=1 / overscan=0 / videoformat=5 / range=0 / colorprim=9 / transfer=16 / colormatrix=9 / chromaloc=1 / chromaloc-top=2 / chromaloc-bottom=2 / display-window=0 / master-display=G(13250,34500)B(7500,3000)R(34000,16000)WP(15635,16450)L(10000000,50) / max-cll=552,132 / min-luma=0 / max-luma=1023 / log2-max-poc-lsb=8 / vui-timing-info / vui-hrd-info / slices=1 / no-opt-qp-pps / no-opt-ref-list-length-pps / no-multi-pass-opt-rps / scenecut-bias=0.05 / no-opt-cu-delta-qp / no-aq-motion / hdr / hdr-opt / no-dhdr10-opt / no-idr-recovery-sei / analysis-reuse-level=5 / scale-factor=0 / refine-intra=0 / refine-inter=0 / refine-mv=0 / no-limit-sao / ctu-info=0 / no-lowpass-dct / refine-mv-type=0 / copy-pic=1 / max-ausize-factor=1.0 / no-dynamic-refine / no-single-sei
Default : Yes
Forced : No
Color range : Limited
Color primaries : BT.2020
Transfer characteristics : PQ
Matrix coefficients : BT.2020 non-constant
Mastering display color primaries : Display P3
Mastering display luminance : min: 0.0050 cd/m2, max: 1000 cd/m2
Maximum Content Light Level : 552 cd/m2
Maximum Frame-Average Light Level : 132 cd/m2

Audio #1
ID : 2
Format : MLP FBA 16-ch
Format/Info : Meridian Lossless Packing FBA with 16-channel presentation
Commercial name : Dolby TrueHD with Dolby Atmos
Codec ID : A_TRUEHD
Duration : 2 h 14 min
Bit rate mode : Variable
Bit rate : 3 950 kb/s
Maximum bit rate : 6 804 kb/s
Channel(s) : 8 channels
Channel layout : L R C LFE Ls Rs Lb Rb
Sampling rate : 48.0 kHz
Frame rate : 1 200.000 FPS (40 SPF)
Compression mode : Lossless
Stream size : 3.72 GiB (15%)
Title : Atmos 7.1
Language : English
Default : Yes
Forced : No
Number of dynamic objects : 11
Bed channel count : 1 channel
Bed channel configuration : LFE

Audio #2
ID : 3
Format : AC-3
Format/Info : Audio Coding 3
Commercial name : Dolby Digital
Codec ID : A_AC3
Duration : 2 h 14 min
Bit rate mode : Constant
Bit rate : 640 kb/s
Channel(s) : 6 channels
Channel layout : L R C LFE Ls Rs
Sampling rate : 48.0 kHz
Frame rate : 31.250 FPS (1536 SPF)
Bit depth : 16 bits
Compression mode : Lossy
Stream size : 617 MiB (2%)
Title : AC-3 5.1
Language : English
Service kind : Complete Main
Default : No
Forced : No

Text #1
ID : 4
Format : UTF-8
Codec ID : S_TEXT/UTF8
Codec ID/Info : UTF-8 Plain Text
Duration : 2 h 7 min
Bit rate : 84 b/s
Count of elements : 2449
Stream size : 78.8 KiB (0%)
Title : Stripped SRT (not positioned)
Language : English
Default : No
Forced : No

Text #2
ID : 5
Format : UTF-8
Codec ID : S_TEXT/UTF8
Codec ID/Info : UTF-8 Plain Text
Duration : 2 h 8 min
Bit rate : 90 b/s
Count of elements : 2636
Stream size : 84.9 KiB (0%)
Title : SDH SRT (not positioned)
Language : English
Default : No
Forced : No

Text #3
ID : 6
Format : PGS
Muxing mode : zlib
Codec ID : S_HDMV/PGS
Codec ID/Info : Picture based subtitle format used on BDs/HD-DVDs
Duration : 2 h 8 min
Bit rate : 60.7 kb/s
Count of elements : 5274
Stream size : 55.7 MiB (0%)
Title : SDH
Language : English
Default : No
Forced : No

Text #4
ID : 7
Format : PGS
Muxing mode : zlib
Codec ID : S_HDMV/PGS
Codec ID/Info : Picture based subtitle format used on BDs/HD-DVDs
Duration : 2 h 13 min
Bit rate : 48.4 kb/s
Count of elements : 4893
Stream size : 46.4 MiB (0%)
Language : French
Default : No
Forced : No

Text #5
ID : 8
Format : PGS
Muxing mode : zlib
Codec ID : S_HDMV/PGS
Codec ID/Info : Picture based subtitle format used on BDs/HD-DVDs
Duration : 2 h 13 min
Bit rate : 54.2 kb/s
Count of elements : 5310
Stream size : 51.6 MiB (0%)
Language : Spanish
Default : No
Forced : No

Menu
00:00:00.000 : :00:00:00.000
00:04:10.250 : :00:04:10.250
00:13:54.876 : :00:13:54.876
00:23:16.604 : :00:23:16.604
00:27:56.508 : :00:27:56.508
00:36:10.668 : :00:36:10.668
00:43:21.557 : :00:43:21.557
00:48:30.616 : :00:48:30.616
00:54:58.629 : :00:54:58.629
00:59:48.543 : :00:59:48.543
01:07:04.771 : :01:07:04.771
01:16:37.802 : :01:16:37.802
01:22:20.394 : :01:22:20.394
01:29:38.123 : :01:29:38.123
01:39:10.653 : :01:39:10.653
01:48:27.042 : :01:48:27.042
01:56:05.584 : :01:56:05.584
02:00:43.945 : :02:00:43.945
02:03:57.430 : :02:03:57.430
02:09:03.569 : :02:09:03.569



1 个附件 售价 大小 下载 时间

BlacKkKlansman.2018.2160p.UHD.BluRay.X265.10bit.HDR.TrueHD.7.1.Atmos-IAMABLE[btbtt.me].torrent 0 金币 64.59K 497 次 7天前

#1楼
发帖时间:2018-11-09 17:37:42   |   回复数:3
911degrees
隐世仙人♂
非常感谢,谢谢分享
7天前 #2楼
liyouchai
超凡入圣№
谢谢楼主分享资源
6天前 #3楼
blue23
隐世仙人♂
感谢楼主分享
5天前 #4楼
游客组