aoloffline
版主

[2018] [欧美] [剧情] [WEB-1080P] [ВТ下载]蕾丝炸弹/出柜炸弹 Lez.Bomb.2018.1080p.WEB-DL.DD5.1.H264-FGT 3.51GB

-->

Lez.Bomb.2018.1080p.WEB-DL.DD5.1.H264-FGT

◎译  名 蕾丝炸弹 / 出柜炸弹

◎片  名 Lez Bomb

◎年  代 2018

◎产  地 美国

◎语  言 英语

◎IMDb链接 http://www.imdb.com/title/tt3496790

◎BT之家整理 http://www.btbtt.us/

◎导  演 Jenna Laurenzo

◎编  剧 Jenna Laurenzo

◎主  演 Jenna Laurenzo

      Cloris Leachman




◎简  介  


  这部喜剧讲述的是在感恩节,一位年轻女子(Laurenzo饰)带着一个重磅消息回家了。但她不知道的是,她那个大家庭里的怪咖家人们也各自准备了自己的“惊喜”,甚至让她找不到合适时机来放下这枚“蕾丝炸弹“(lez bomb)。在本届由Geena Davis参与创办的本顿维尔(Bentonville)电影节中,《蕾丝炸弹》(Lez Bomb)的导演Jenna Laurenzo将最佳叙事电影评委会奖收入囊中



Video
ID : 1
Format : AVC
Format/Info : Advanced Video Codec
Format profile : High@L4
Format settings : CABAC / 4 Ref Frames
Format settings, CABAC : Yes
Format settings, ReFrames : 4 frames
Codec ID : V_MPEG4/ISO/AVC
Duration : 1 h 30 min
Bit rate : 5 195 kb/s
Width : 1 920 pixels
Height : 1 012 pixels
Display aspect ratio : 1.897
Frame rate mode : Constant
Frame rate : 23.976 FPS
Color space : YUV
Chroma subsampling : 4:2:0
Bit depth : 8 bits
Scan type : Progressive
Bits/(Pixel*Frame) : 0.112
Stream size : 3.27 GiB (93%)
Title : Lez.Bomb.2018.1080p.WEB-DL.DD5.1.H264-FGT
Language : English
Default : Yes
Forced : No
Color range : Limited
Color primaries : BT.709
Transfer characteristics : BT.709
Matrix coefficients : BT.709

Audio
ID : 2
Format : AC-3
Format/Info : Audio Coding 3
Commercial name : Dolby Digital
Codec ID : A_AC3
Duration : 1 h 30 min
Bit rate mode : Constant
Bit rate : 384 kb/s
Channel(s) : 6 channels
Channel layout : L R C LFE Ls Rs
Sampling rate : 48.0 kHz
Frame rate : 31.250 FPS (1536 SPF)
Bit depth : 16 bits
Compression mode : Lossy
Stream size : 247 MiB (7%)
Title : Lez.Bomb.2018.1080p.WEB-DL.DD5.1.H264-FGT
Language : English
Service kind : Complete Main
Default : Yes
Forced : No

Menu
00:00:00.000 : en:Chapter 1
00:07:27.447 : en:Chapter 2
00:19:51.190 : en:Chapter 3
00:29:11.750 : en:Chapter 4
00:40:22.420 : en:Chapter 5
00:50:19.016 : en:Chapter 6
01:00:04.601 : en:Chapter 7
01:10:54.249 : en:Chapter 8
01:20:14.808 : en:Chapter 9
01:25:17.109 : en:Chapter 10



1 个附件 售价 大小 下载 时间

Lez.Bomb.2018.1080p.WEB-DL.DD5.1.H264-FGT[btbtt.me].torrent 0 金币 70.74K 754 次 7天前

#1楼
发帖时间:2018-11-09 17:32:38   |   回复数:4
911degrees
隐世仙人♂
非常感谢,谢谢分享
7天前 #2楼
tanchoohoon
武林盟主
感谢楼主的无私分享
7天前 #3楼
liyouchai
超凡入圣№
谢谢楼主分享资源
6天前 #4楼
blue23
隐世仙人♂
感谢楼主分享
5天前 #5楼
游客组