aoloffline
版主

[2017] [欧美] [犯罪] [WEB-1080P] [BT下载]红衣主教X MDMA.2017.1080p.WEB-DL.DD5.1.H264-FGT 3.42GB

-->

MDMA.2017.1080p.WEB-DL.DD5.1.H264-FGT

◎译  名 红衣主教X

◎片  名 MDMA

◎年  代 2017

◎产  地 美国

◎类  别 剧情/犯罪

◎语  言 英语

◎上映日期 2017-03-10(亚裔美国人电影节)/2018-09-14(美国)

◎BT之家整理 http://www.btbtt.us/

◎片  长 98分钟

◎导  演 王国安 Angie Wang

◎主  演 弗朗西斯卡·伊斯特伍德 Francesca Eastwood

      Pierson Fode

      Elisa Donovan

      Annie Q.


◎简  介


  In 1984, the most powerful drug dealer on the west coast was a 19 year old coed. Based on actual events.


◎获奖情况


  第41届蒙特利尔世界电影节  (2017)

  美洲大奖(提名) 王国安



Video
ID : 1
Format : AVC
Format/Info : Advanced Video Codec
Format profile : High@L4
Format settings : CABAC / 5 Ref Frames
Format settings, CABAC : Yes
Format settings, ReFrames : 5 frames
Format settings, GOP : N=1
Codec ID : V_MPEG4/ISO/AVC
Duration : 1 h 38 min
Bit rate : 4 601 kb/s
Width : 1 916 pixels
Height : 798 pixels
Display aspect ratio : 2.40:1
Frame rate mode : Constant
Frame rate : 23.976 FPS
Color space : YUV
Chroma subsampling : 4:2:0
Bit depth : 8 bits
Scan type : Progressive
Bits/(Pixel*Frame) : 0.126
Stream size : 3.16 GiB (92%)
Title : MDMA.2018.1080p.WEB-DL.DD5.1.H264-FGT
Language : English
Default : Yes
Forced : No
Color range : Limited
Color primaries : BT.709
Transfer characteristics : BT.709
Matrix coefficients : BT.709

Audio
ID : 2
Format : AC-3
Format/Info : Audio Coding 3
Codec ID : A_AC3
Duration : 1 h 38 min
Bit rate mode : Constant
Bit rate : 384 kb/s
Channel(s) : 6 channels
Channel positions : Front: L C R, Side: L R, LFE
Sampling rate : 48.0 kHz
Frame rate : 31.250 FPS (1536 SPF)
Bit depth : 16 bits
Compression mode : Lossy
Stream size : 270 MiB (8%)
Title : MDMA.2018.1080p.WEB-DL.DD5.1.H264-FGT
Language : English
Service kind : Complete Main
Default : Yes
Forced : No

Menu
00:00:00.000 : en:1
00:13:16.755 : en:2
00:20:09.666 : en:3
00:30:57.979 : en:4
00:40:19.540 : en:5
00:50:29.690 : en:6
01:02:03.132 : en:7
01:12:48.067 : en:8
01:18:43.588 : en:9
01:33:57.626 : en:10




1 个附件 售价 大小 下载 时间

MDMA.2017.1080p.WEB-DL.DD5.1.H264-FGT[btbtt.me].torrent 0 金币 68.93K 966 次 7天前

#1楼
发帖时间:2018-09-14 23:48:39   |   回复数:3
911degrees
隐世仙人♂
非常感谢,谢谢分享
7天前 #2楼
blue23
隐世仙人♂
感谢楼主分享
7天前 #3楼
liyouchai
超凡入圣№
谢谢楼主分享资源
6天前 #4楼
游客组