aoloffline
版主

[2017] [欧美] [惊悚] [WEB-1080P] [BT下载]法网恢恢 Warning.Shot.2018.1080p.WEB-DL.DD5.1.H264-FGT 3.03GB

-->

Warning.Shot.2018.1080p.WEB-DL.DD5.1.H264-FGT

◎译  名 法网恢恢

◎片  名 Warning Shot

◎年  代 2017

◎产  地 美国

◎类  别 剧情/惊悚

◎语  言 英语

◎BT之家整理 http://www.btbtt.us/

◎片  长 90分钟

◎导  演 Dustin Fairbanks

◎主  演 David Spade

      詹姆斯·厄尔·琼斯 James Earl Jones

      弗兰克·威利 Frank Whaley


◎简  介


  A single mother and her young daughter struggle to make ends meet until they inherit their family's farmhouse. When a business rival covets their water rights| thesituation spirals out of control.


Video
ID : 1
Format : AVC
Format/Info : Advanced Video Codec
Format profile : High@L4
Format settings : CABAC / 5 Ref Frames
Format settings, CABAC : Yes
Format settings, ReFrames : 5 frames
Codec ID : V_MPEG4/ISO/AVC
Duration : 1 h 26 min
Bit rate : 4 603 kb/s
Width : 1 908 pixels
Height : 796 pixels
Display aspect ratio : 2.40:1
Frame rate mode : Constant
Frame rate : 23.976 (24000/1001) FPS
Color space : YUV
Chroma subsampling : 4:2:0
Bit depth : 8 bits
Scan type : Progressive
Bits/(Pixel*Frame) : 0.126
Stream size : 2.79 GiB (92%)
Title : Warning.Shot.2018.1080p.WEB-DL.DD5.1.H264-FGT
Language : English
Default : Yes
Forced : No
Color range : Limited
Color primaries : BT.709
Transfer characteristics : BT.709
Matrix coefficients : BT.709

Audio
ID : 2
Format : AC-3
Format/Info : Audio Coding 3
Codec ID : A_AC3
Duration : 1 h 26 min
Bit rate mode : Constant
Bit rate : 384 kb/s
Channel(s) : 6 channels
Channel positions : Front: L C R, Side: L R, LFE
Sampling rate : 48.0 kHz
Frame rate : 31.250 FPS (1536 SPF)
Bit depth : 16 bits
Compression mode : Lossy
Stream size : 239 MiB (8%)
Title : Warning.Shot.2018.1080p.WEB-DL.DD5.1.H264-FGT
Language : English
Service kind : Complete Main
Default : Yes
Forced : No

Menu
00:00:00.000 : en:1
00:02:30.000 : en:2
00:12:44.000 : en:3
00:21:42.000 : en:4
00:32:22.000 : en:5
00:41:09.000 : en:6
00:48:05.000 : en:7
00:57:16.000 : en:8
01:05:42.000 : en:9
01:14:18.000 : en:10





1 个附件 售价 大小 下载 时间

Warning.Shot.2018.1080p.WEB-DL.DD5.1.H264-FGT[btbtt.me].torrent 0 金币 61.10K 308 次 1月前

#1楼
发帖时间:2018-09-14 23:46:39   |   回复数:3
911degrees
隐世仙人♂
非常感谢,谢谢分享
1月前 #2楼
blue23
隐世仙人♂
感谢楼主分享
1月前 #3楼
liyouchai
超凡入圣№
谢谢楼主分享资源
1月前 #4楼
游客组