_KOOK
武林高手

[更 早] [韩国] [爱情] [BD-1080P] [BT下载]处女心经. Virgin Stripped Bare by Her Bachelors .2000.KR.BluRay.1920x1080p.x26

-->

处女心经. Virgin Stripped Bare by Her Bachelors .2000.KR.BluRay.1920x1080p.x264.DTS.3Audios-KOOK.[韩国英三语.中英双字] 10.5GB


无广告,无水印,独家中英双字幕

不定时做种,保证出种,请耐心等待.



※※※※※※※ 影片信息 ※※※※※※※


◎片   名 Virgin Stripped Bare by Her Bachelors 

◎译   名 处女心经 / 哦!秀贞 /  Oh! Soo-jung

◎年   代 2000

◎国   家 韩国

◎类   别 爱情

◎语   言 韩语

◎上映日 期 2000-05-27

◎字   幕 中英双字/简体字幕/繁体字幕/英文字幕

◎IMDB 评分  7.1/10 from 998 users

◎豆瓣 评分  7.0/10 from 3794 users

◎视频尺 寸  1920x1080p

◎片   长 2.07.00

◎导   演 洪尚秀

◎编   剧  洪尚秀

◎主   演 李恩珠 / 文成根 / 韩明求 / 郑宝石 / 柳善



 

◎简  介


  电视台里,编剧秀贞(李恩珠 饰)爱上了有妇之夫的制片永硕(文成根 饰)。永硕的独立电影需要投资,秀贞便与永硕来到了永硕朋友杰勋(韩明求 饰)的画廊。这位朋友却对秀贞很感兴趣,更希望秀贞能成为自己的女朋友。秀贞开始与杰勋交往,一开始相处还算融洽,不久杰勋便想进一步与秀贞发展。仍是处女的秀贞对于性这件事颇为介意,杰勋见无法进一步得到秀贞,大感无奈。 

  秀贞一直爱着的永硕也对秀贞示爱了,秀贞不知该把自己的身体交给哪一个男人。




第53届戛纳电影节  (2000)


一种关注单元 一种关注大奖(提名) 洪尚秀

第13届东京国际电影节  (2000)


主竞赛单元 最佳影片(提名) 洪尚秀

主竞赛单元 评委会大奖 洪尚秀

亚洲之风 特别提及 洪尚秀

第21届韩国青龙电影奖最佳电影奖 提名 《处女心经》

第21届韩国青龙电影奖最佳导演奖 提名 洪常秀

第21届韩国青龙电影奖最佳新人女演员奖 提名 李恩珠

2001年 第38届韩国电影大钟奖最佳新人女演员奖 获奖 李恩珠




※※※※※※※ 参数信息 ※※※※※※※



General

Unique ID                      : 247848525997577802895516660544348963714 (0xBA75E3C937E1695C9DFBF3C1683D4382)


Format                         : Matroska

Format version                 : Version 4 / Version 2

File size                      : 10.6 GiB

Duration                       : 2 h 7 min

Overall bit rate               : 11.9 Mb/s

Movie name                     : KOOK

Encoded date                   : UTC 2018-08-22 16:15:57

Writing application            : mkvmerge v9.4.2 ('So High') 64bit

Writing library                : libebml v1.3.4 + libmatroska v1.4.5

Attachments                    : fzlbfw.ttf / fzlbjw.ttf / STKAITI.TTF / 正式海报.jpg


Video

ID                             : 1

Format                         : AVC

Format/Info                    : Advanced Video Codec

Format profile                 : High@L4

Format settings, CABAC         : Yes

Format settings, ReFrames      : 4 frames

Codec ID                       : V_MPEG4/ISO/AVC

Duration                       : 2 h 6 min

Bit rate                       : 10 000 kb/s

Width                          : 1 920 pixels

Height                         : 1 080 pixels

Display aspect ratio           : 16:9

Frame rate mode                : Variable

Frame rate                     : 23.976 (24000/1001) FPS

Color space                    : YUV

Chroma subsampling             : 4:2:0

Bit depth                      : 8 bits

Scan type                      : Progressive

Bits/(Pixel*Frame)             : 0.201

Stream size                    : 8.86 GiB (84%)

Writing library                : x264 core 148 r2721+46 0c4b09a xiaowan [8-bit@all X86_64]

Encoding settings              : cabac=1 / ref=4 / deblock=1:1:1 / analyse=0x3:0x133 / me=umh / subme=10 / psy=1 / fade_compensate=0.00 / psy_rd=0.30:0.00 / mixed_ref=1 / me_range=24 / chroma_me=1 / trellis=2 / 8x8dct=1 / cqm=0 / deadzone=21,11 / fast_pskip=1 / chroma_qp_offset=-2 / threads=12 / lookahead_threads=1 / sliced_threads=0 / nr=0 / decimate=1 / interlaced=0 / bluray_compat=0 / constrained_intra=0 / fgo=0 / bframes=3 / b_pyramid=2 / b_adapt=2 / b_bias=0 / direct=3 / weightb=1 / open_gop=0 / weightp=2 / keyint=240 / keyint_min=1 / scenecut=60 / intra_refresh=0 / rc_lookahead=60 / rc=2pass / mbtree=1 / bitrate=10000 / ratetol=1.0 / qcomp=0.50 / qpmin=0:0:0 / qpmax=69:69:69 / qpstep=4 / cplxblur=20.0 / qblur=0.5 / ip_ratio=1.40 / aq=2:0.80 / aq-sensitivity=10.00 / aq-factor=1.00:1.00:1.00 / aq2=0 / aq3=0

Default                        : Yes

Forced                         : No

Color range                    : Limited

Matrix coefficients            : BT.709


Audio #1

ID                             : 2

Format                         : DTS

Format/Info                    : Digital Theater Systems

Mode                           : 16

Format settings, Endianness    : Big

Codec ID                       : A_DTS

Duration                       : 2 h 6 min

Bit rate mode                  : Constant

Bit rate                       : 1 509 kb/s

Channel(s)                     : 6 channels

Channel positions              : Front: L C R, Side: L R, LFE

Sampling rate                  : 48.0 kHz

Frame rate                     : 93.750 FPS (512 spf)

Bit depth                      : 16 bits

Compression mode               : Lossy

Stream size                    : 1.34 GiB (13%)

Title                          : 韩语音轨

Language                       : Korean

Default                        : Yes

Forced                         : No


Audio #2

ID                             : 3

Format                         : AC-3

Format/Info                    : Audio Coding 3

Mode extension                 : CM (complete main)

Format settings, Endianness    : Big

Codec ID                       : A_AC3

Duration                       : 2 h 7 min

Bit rate mode                  : Constant

Bit rate                       : 192 kb/s

Channel(s)                     : 2 channels

Channel positions              : Front: L R

Sampling rate                  : 48.0 kHz

Frame rate                     : 31.250 FPS (1536 spf)

Compression mode               : Lossy

Stream size                    : 174 MiB (2%)

Title                          : 国语配音

Language                       : Chinese

Default                        : No

Forced                         : Yes


Audio #3

ID                             : 4

Format                         : AC-3

Format/Info                    : Audio Coding 3

Mode extension                 : CM (complete main)

Format settings, Endianness    : Big

Codec ID                       : A_AC3

Duration                       : 2 h 7 min

Bit rate mode                  : Constant

Bit rate                       : 192 kb/s

Channel(s)                     : 2 channels

Channel positions              : Front: L R

Sampling rate                  : 48.0 kHz

Frame rate                     : 31.250 FPS (1536 spf)

Compression mode               : Lossy

Stream size                    : 174 MiB (2%)

Title                          : 粤语音轨

Language                       : Chinese

Default                        : No

Forced                         : No


Text #1

ID                             : 5

Format                         : ASS

Codec ID                       : S_TEXT/ASS

Codec ID/Info                  : Advanced Sub Station Alpha

Duration                       : 2 h 4 min

Bit rate                       : 149 b/s

Count of elements              : 1069

Compression mode               : Lossless

Stream size                    : 137 KiB (0%)

Title                          : 中英字幕

Language                       : Chinese

Default                        : Yes

Forced                         : No


Text #2

ID                             : 6

Format                         : ASS

Codec ID                       : S_TEXT/ASS

Codec ID/Info                  : Advanced Sub Station Alpha

Duration                       : 2 h 4 min

Bit rate                       : 63 b/s

Count of elements              : 1068

Compression mode               : Lossless

Stream size                    : 57.7 KiB (0%)

Title                          : 简体字幕

Language                       : Chinese

Default                        : No

Forced                         : No


Text #3

ID                             : 7

Format                         : ASS

Codec ID                       : S_TEXT/ASS

Codec ID/Info                  : Advanced Sub Station Alpha

Duration                       : 2 h 4 min

Bit rate                       : 63 b/s

Count of elements              : 1068

Compression mode               : Lossless

Stream size                    : 57.7 KiB (0%)

Title                          : 繁体字幕

Language                       : Chinese

Default                        : No

Forced                         : No


Text #4

ID                             : 8

Format                         : ASS

Codec ID                       : S_TEXT/ASS

Codec ID/Info                  : Advanced Sub Station Alpha

Duration                       : 2 h 4 min

Bit rate                       : 104 b/s

Count of elements              : 1068

Compression mode               : Lossless

Stream size                    : 95.5 KiB (0%)

Title                          : 英文字幕

Language                       : English

Default                        : No

Forced                         : No



#1楼
发帖时间:2018-09-14 20:25:37   |   回复数:5
gvs123
武林高手
好评
2月前 #2楼
911degrees
隐世仙人♂
非常感谢,谢谢分享
2月前 #3楼
liyouchai
超凡入圣№
谢谢楼主分享资源
2月前 #4楼
blue23
隐世仙人♂
感谢楼主分享
2月前 #5楼
tanchoohoon
武林盟主
感谢楼主的无私分享!
2月前 #6楼
游客组