aoloffline
版主

[2018] [欧美] [动作] [WEB-720P] [BT下载]异形掠夺者 Alien.Predator.2018.720p.AMZN.WEBRip.DDP5.1.x264-NTG 3.81GB

-->

Alien.Predator.2018.720p.AMZN.WEBRip.DDP5.1.x264-NTG


◎译  名 异形掠夺者

◎片  名 Alien Predator

◎年  代 2018

◎产  地 美国

◎类  别 动作/恐怖/科幻

◎语  言 英语

◎BT之家整理 http://www.btbtt.us/

◎导  演 Jared Cohn

◎主  演 Kris Black ... Texas

      Sébastien Charmant ... Malloy

      Xavi Israel

      Jude B. Lanston ... Sklaroff

      Philip Nathanael ... Hobbs



◎简  介


  When a black ops team is sent to investigate the crash of an unidentified aircraft| they soon find themselves being hunted by the former occupants.


Video
ID : 1
Format : AVC
Format/Info : Advanced Video Codec
Format profile : High@L3.1
Format settings : CABAC / 4 Ref Frames
Format settings, CABAC : Yes
Format settings, ReFrames : 4 frames
Format settings, GOP : M=4, N=48
Codec ID : V_MPEG4/ISO/AVC
Duration : 1 h 27 min
Bit rate mode : Constant
Bit rate : 6 000 kb/s
Width : 1 280 pixels
Height : 720 pixels
Display aspect ratio : 16:9
Frame rate mode : Constant
Frame rate : 23.976 (24000/1001) FPS
Color space : YUV
Chroma subsampling : 4:2:0
Bit depth : 8 bits
Scan type : Progressive
Bits/(Pixel*Frame) : 0.272
Stream size : 3.65 GiB (96%)
Language : English
Default : Yes
Forced : No
Color range : Limited
Color primaries : BT.709
Transfer characteristics : BT.709
Matrix coefficients : BT.709

Audio
ID : 2
Format : E-AC-3
Format/Info : Enhanced Audio Coding 3
Codec ID : A_EAC3
Duration : 1 h 27 min
Bit rate mode : Constant
Bit rate : 256 kb/s
Channel(s) : 6 channels
Channel positions : Front: L C R, Side: L R, LFE
Sampling rate : 48.0 kHz
Frame rate : 187.500 FPS (256 SPF)
Compression mode : Lossy
Stream size : 161 MiB (4%)
Language : English
Service kind : Complete Main
Default : Yes
Forced : No

Text
ID : 3
Format : UTF-8
Codec ID : S_TEXT/UTF8
Codec ID/Info : UTF-8 Plain Text
Duration : 1 h 24 min
Bit rate : 65 b/s
Count of elements : 1249
Stream size : 40.6 KiB (0%)
Title : SDH
Language : English
Default : No
Forced : No




1 个附件 售价 大小 下载 时间

Alien.Predator.2018.720p.AMZN.WEBRip.DDP5.1.x264-NTG[btbtt.me].torrent 0 金币 76.78K 1113 次 2月前

#1楼
发帖时间:2018-09-14 20:24:48   |   回复数:3
911degrees
隐世仙人♂
非常感谢,谢谢分享
2月前 #2楼
liyouchai
超凡入圣№
谢谢楼主分享资源
2月前 #3楼
blue23
隐世仙人♂
感谢楼主分享
2月前 #4楼
游客组