aoloffline
版主

[2018] [欧美] [剧情] [WEB-720P] [BT下载]习惯之地/出走 The.Land.of.Steady.Habits.2018.720p.WEBRip.x264-STRiFE 2.12GB

-->

The.Land.of.Steady.Habits.2018.720p.WEBRip.x264-STRiFE

◎译  名 习惯之地/出走(台)/变节记(港)

◎片  名 The Land of Steady Habits

◎年  代 2018

◎产  地 美国

◎类  别 剧情

◎语  言 英语

◎上映日期 2018-09-12(多伦多电影节)/2018-09-14(美国)

◎BT之家整理 http://www.btbtt.us/

◎导  演 妮可·哈罗芬瑟 Nicole Holofcener

◎主  演 本·门德尔森 Ben Mendelsohn

      埃迪·法可 Edie Falco

      托马斯·曼 Thomas Mann

      霍普·戴维斯 Hope Davis

      迈克尔·加斯顿 Michael Gaston

      乔什·帕斯 Josh Pais

      Evan Mirand


◎简  介


  本·门德尔森、埃迪·法可和托马斯·曼确认出演妮可·哈罗芬瑟执导新片《习惯之地》(The Land of Steady Habits,暂译)。影片改编自泰德·汤普森的同名小说,讲述刚刚退休的老人安德斯·希尔决定离开家庭,追寻失去多年的“自由”的故事。


Video
ID : 1
Format : AVC
Format/Info : Advanced Video Codec
Format profile : High@L4.1
Format settings : CABAC / 5 Ref Frames
Format settings, CABAC : Yes
Format settings, RefFrames : 5 frames
Codec ID : V_MPEG4/ISO/AVC
Duration : 1 h 38 min
Bit rate : 2 447 kb/s
Width : 1 280 pixels
Height : 640 pixels
Display aspect ratio : 2.000
Frame rate mode : Constant
Frame rate : 23.976 (24000/1001) FPS
Color space : YUV
Chroma subsampling : 4:2:0
Bit depth : 8 bits
Scan type : Progressive
Bits/(Pixel*Frame) : 0.125
Stream size : 1.68 GiB (79%)
Writing library : x264 core 155 r2901 7d0ff22
Encoding settings : cabac=1 / ref=5 / deblock=1:-3:-3 / analyse=0x3:0x113 / me=hex / subme=8 / psy=1 / psy_rd=1.00:0.15 / mixed_ref=1 / me_range=16 / chroma_me=1 / trellis=2 / 8x8dct=1 / cqm=0 / deadzone=21,11 / fast_pskip=0 / chroma_qp_offset=-2 / threads=20 / lookahead_threads=3 / sliced_threads=0 / nr=0 / decimate=1 / interlaced=0 / bluray_compat=0 / constrained_intra=0 / bframes=3 / b_pyramid=2 / b_adapt=1 / b_bias=0 / direct=3 / weightb=1 / open_gop=0 / weightp=2 / keyint=240 / keyint_min=23 / scenecut=40 / intra_refresh=0 / rc_lookahead=50 / rc=crf / mbtree=1 / crf=18.0 / qcomp=0.60 / qpmin=0 / qpmax=69 / qpstep=4 / ip_ratio=1.40 / aq=3:0.80
Language : English
Default : Yes
Forced : No

Audio
ID : 2
Format : E-AC-3
Format/Info : Enhanced Audio Coding 3
Format settings, Endianness : Big
Codec ID : A_EAC3
Duration : 1 h 38 min
Bit rate mode : Constant
Bit rate : 640 kb/s
Channel(s) : 6 channels
Channel positions : Front: L C R, Side: L R, LFE
Sampling rate : 48.0 kHz
Frame rate : 187.500 FPS (256 SPF)
Compression mode : Lossy
Stream size : 450 MiB (21%)
Language : English
Service kind : Complete Main
Default : Yes
Forced : No

Text #1
ID : 3
Format : UTF-8
Codec ID : S_TEXT/UTF8
Codec ID/Info : UTF-8 Plain Text
Duration : 1 h 33 min
Bit rate : 71 b/s
Count of elements : 1391
Stream size : 48.5 KiB (0%)
Language : English
Default : No
Forced : No

Text #2
ID : 4
Format : UTF-8
Codec ID : S_TEXT/UTF8
Codec ID/Info : UTF-8 Plain Text
Duration : 1 h 34 min
Bit rate : 56 b/s
Count of elements : 1289
Stream size : 38.8 KiB (0%)
Title : Brazilian
Language : Portuguese
Default : No
Forced : No

Text #3
ID : 5
Format : UTF-8
Codec ID : S_TEXT/UTF8
Codec ID/Info : UTF-8 Plain Text
Duration : 1 h 34 min
Bit rate : 52 b/s
Count of elements : 1299
Stream size : 36.4 KiB (0%)
Language : Dutch
Default : No
Forced : No

Text #4
ID : 6
Format : UTF-8
Codec ID : S_TEXT/UTF8
Codec ID/Info : UTF-8 Plain Text
Duration : 1 h 34 min
Bit rate : 57 b/s
Count of elements : 1299
Stream size : 39.6 KiB (0%)
Language : French
Default : No
Forced : No

Text #5
ID : 7
Format : UTF-8
Codec ID : S_TEXT/UTF8
Codec ID/Info : UTF-8 Plain Text
Duration : 1 h 34 min
Bit rate : 60 b/s
Count of elements : 1262
Stream size : 42.0 KiB (0%)
Language : German
Default : No
Forced : No



1 个附件 售价 大小 下载 时间

The.Land.of.Steady.Habits.2018.720p.WEBRip.x264-STRiFE[btbtt.me].torrent 0 金币 85.41K 231 次 7天前

#1楼
发帖时间:2018-09-14 20:10:39   |   回复数:3
911degrees
隐世仙人♂
非常感谢,谢谢分享
7天前 #2楼
liyouchai
超凡入圣№
谢谢楼主分享资源
7天前 #3楼
blue23
隐世仙人♂
感谢楼主分享
7天前 #4楼
游客组