aoloffline
版主

[2016] [欧美] [纪录] [WEB-1080P] [BT下载]没有尽头的世界 World.Without.End.2016.1080p.AMZN.WEBRip.DDP5.1.x264-monkee 2.2GB

-->

World.Without.End.No.Reported.Incidents.2016.1080p.AMZN.WEBRip.DDP5.1.x264-monkee

◎译  名 没有尽头的世界

◎片  名 World Without End (No Reported Incidents)

◎年  代 2016

◎产  地 英国/美国

◎类  别 纪录片

◎语  言 英语

◎BT之家整理 http://www.btbtt.us/

◎片  长 57分钟

◎导  演 Jem Cohen


◎简  介


  A portrait of Southend-on-Sea| a town along England's Thames estuary| that includes everyday streets| people| birds| water| mud and sky.


Video
ID : 1
Format : AVC
Format/Info : Advanced Video Codec
Format profile : High@L4
Format settings : CABAC / 4 Ref Frames
Format settings, CABAC : Yes
Format settings, ReFrames : 4 frames
Codec ID : V_MPEG4/ISO/AVC
Duration : 58 min 5 s
Bit rate mode : Variable
Bit rate : 4 860 kb/s
Maximum bit rate : 15.0 Mb/s
Width : 1 920 pixels
Height : 1 080 pixels
Display aspect ratio : 16:9
Frame rate mode : Constant
Frame rate : 24.000 FPS
Color space : YUV
Chroma subsampling : 4:2:0
Bit depth : 8 bits
Scan type : Progressive
Bits/(Pixel*Frame) : 0.098
Stream size : 1.97 GiB (88%)
Default : Yes
Forced : No
Color range : Limited
Color primaries : BT.709
Transfer characteristics : BT.709
Matrix coefficients : BT.709

Audio
ID : 2
Format : E-AC-3
Format/Info : Enhanced Audio Coding 3
Codec ID : A_EAC3
Duration : 58 min 4 s
Bit rate mode : Constant
Bit rate : 640 kb/s
Channel(s) : 6 channels
Channel positions : Front: L C R, Side: L R, LFE
Sampling rate : 48.0 kHz
Frame rate : 187.500 FPS (256 SPF)
Compression mode : Lossy
Stream size : 266 MiB (12%)
Language : English
Service kind : Complete Main
Default : Yes
Forced : No

Text #1
ID : 3
Format : UTF-8
Codec ID : S_TEXT/UTF8
Codec ID/Info : UTF-8 Plain Text
Duration : 53 min 27 s
Bit rate : 44 b/s
Count of elements : 439
Stream size : 17.6 KiB (0%)
Language : English
Default : No
Forced : No

Text #2
ID : 4
Format : UTF-8
Codec ID : S_TEXT/UTF8
Codec ID/Info : UTF-8 Plain Text
Duration : 54 min 48 s
Bit rate : 45 b/s
Count of elements : 484
Stream size : 18.4 KiB (0%)
Title : SDH
Language : English
Default : No
Forced : No




1 个附件 售价 大小 下载 时间

World.Without.End.No.Reported.Incidents.2016.1080p.AMZN.WEBRip.DDP5.1.x264-monkee[btbtt.me].torrent 0 金币 45.23K 469 次 7天前

#1楼
发帖时间:2018-09-14 20:09:04   |   回复数:3
911degrees
隐世仙人♂
非常感谢,谢谢分享
7天前 #2楼
liyouchai
超凡入圣№
谢谢楼主分享资源
7天前 #3楼
blue23
隐世仙人♂
感谢楼主分享
7天前 #4楼
游客组