aoloffline
版主

[更 早] [欧美] [犯罪] [WEB-1080P] [BT下载]霹雳大火拼/电话/谍海大风暴 Telefon.1977.1080p.WEBRip.DD2.0.x264-SbR 8.4GB

-->

Telefon.1977.1080p.WEBRip.DD2.0.x264-SbR

◎译  名 霹雳大火拼/电话/谍海大风暴

◎片  名 Telefon

◎年  代 1977

◎产  地 美国

◎类  别 犯罪/动作/惊悚

◎语  言 英语

◎上映日期 1977-12-16

◎BT之家整理 http://www.btbtt.us/

◎片  长 102 分钟

◎导  演 唐·希格尔 Don Siegel

◎主  演 查尔斯·布朗森 Charles Bronson

      丽·莱米克 Lee Remick

      唐纳德·普利森斯 Donald Pleasence

      泰恩·黛莉 Tyne Daly

      艾兰·巴德尔 Alan Badel

      帕特里克·马基 Patrick Magee

      谢瑞·诺丝 Sheree North

      弗兰克·马斯 Frank Marth

      Helen Page Camp

      罗伊·詹森 Roy Jenson

      Jacqueline Scott

      埃德·巴基 Ed Bakey

      John Mitchum

      伊吉·沃尔芬顿 Iggie Wolfington

      汉克勃兰特 Hank Brandt


◎简  介


  在美国和苏联两大强权冷战期间,苏联采取了一个神秘的电话洗脑的计划,将一批训练过的间谍派到美国各地,然后伪装成普通老百姓,在那里过着正常人的生活,准备在需要的时候再将他们唤醒。但多年以后美苏两国的关系有所好转,但这批间谍被一些别有用心的人用神秘的电影电话唤醒了。为了挽回局面,苏联军方派出了一个名叫格里高利·布尔佐夫的苏联秘密警察到美国去处理此计划造成的灾害,而美国方面也派出了反间谍专家芭芭拉协助布尔佐夫完成任务。在调查真相的过程中,两个身份互相敌对的人却产生了微妙的感情。最后他俩甘愿放弃间谍身份,一起过平民的生活。导演唐.西格尔以老练手法拍出多场刺激火爆的动作场面,对于间谍生涯的可厌也有所表现,是查尔斯.布朗森主演的佳作之一。


Video
ID : 1
Format : AVC
Format/Info : Advanced Video Codec
Format profile : High@L4
Format settings : CABAC / 4 Ref Frames
Format settings, CABAC : Yes
Format settings, ReFrames : 4 frames
Codec ID : V_MPEG4/ISO/AVC
Duration : 1 h 42 min
Bit rate mode : Variable
Bit rate : 11.5 Mb/s
Maximum bit rate : 15.0 Mb/s
Width : 1 920 pixels
Height : 1 080 pixels
Display aspect ratio : 16:9
Frame rate mode : Constant
Frame rate : 23.976 (24000/1001) FPS
Color space : YUV
Chroma subsampling : 4:2:0
Bit depth : 8 bits
Scan type : Progressive
Bits/(Pixel*Frame) : 0.231
Stream size : 8.24 GiB (98%)
Writing library : x264 core 148 r2623 d5b2374
Encoding settings : cabac=1 / ref=4 / deblock=1:-1:-1 / analyse=0x3:0x133 / me=umh / subme=9 / psy=1 / psy_rd=1.00:0.15 / mixed_ref=1 / me_range=24 / chroma_me=1 / trellis=2 / 8x8dct=1 / cqm=0 / deadzone=21,11 / fast_pskip=1 / chroma_qp_offset=-3 / threads=34 / lookahead_threads=5 / sliced_threads=0 / nr=150 / decimate=1 / interlaced=0 / bluray_compat=0 / constrained_intra=0 / bframes=8 / b_pyramid=2 / b_adapt=2 / b_bias=0 / direct=3 / weightb=1 / open_gop=0 / weightp=2 / keyint=120 / keyint_min=61 / scenecut=0 / intra_refresh=0 / rc_lookahead=120 / rc=crf / mbtree=1 / crf=18.0 / qcomp=0.60 / qpmin=0 / qpmax=69 / qpstep=4 / vbv_maxrate=15000 / vbv_bufsize=31250 / crf_max=0.0 / nal_hrd=vbr / filler=0 / ip_ratio=1.40 / aq=3:1.00
Default : Yes
Forced : No
Color range : Limited
Color primaries : BT.709
Transfer characteristics : BT.709
Matrix coefficients : BT.709

Audio
ID : 2
Format : E-AC-3
Format/Info : Enhanced Audio Coding 3
Codec ID : A_EAC3
Duration : 1 h 42 min
Bit rate mode : Constant
Bit rate : 224 kb/s
Channel(s) : 2 channels
Channel positions : Front: L R
Sampling rate : 48.0 kHz
Frame rate : 187.500 FPS (256 SPF)
Compression mode : Lossy
Stream size : 165 MiB (2%)
Language : English
Service kind : Complete Main
Default : Yes
Forced : No

Text
ID : 3
Format : UTF-8
Codec ID : S_TEXT/UTF8
Codec ID/Info : UTF-8 Plain Text
Duration : 1 h 39 min
Bit rate : 44 b/s
Count of elements : 1203
Stream size : 32.6 KiB (0%)
Title : SDH
Language : English
Default : No
Forced : No




1 个附件 售价 大小 下载 时间

Telefon.1977.1080p.WEBRip.DD2.0.x264-SbR[btbtt.me].torrent 0 金币 84.56K 483 次 2月前

#1楼
发帖时间:2018-09-14 20:02:48   |   回复数:4
tanchoohoon
武林盟主
感谢楼主的无私分享!
2月前 #2楼
911degrees
隐世仙人♂
非常感谢,谢谢分享
2月前 #3楼
liyouchai
超凡入圣№
谢谢楼主分享资源
2月前 #4楼
blue23
隐世仙人♂
感谢楼主分享
2月前 #5楼
游客组