aoloffline
版主

[2018] [欧美] [动作] [WEB-720P] [BT下载]曼蒂/曼迪 Mandy.2018.720p.AMZN.WEBRip.DDP5.1.x264-NTG 2.16GB

-->

Mandy.2018.720p.AMZN.WEBRip.DDP5.1.x264-NTG

◎译  名 曼蒂/曼迪

◎片  名 Mandy

◎年  代 2018

◎产  地 美国

◎类  别 动作/惊悚

◎语  言 英语

◎上映日期 2018-01-19(圣丹斯电影节)/2018-09-14(美国)

◎BT之家整理 http://www.btbtt.us/

◎片  长 120分钟

◎导  演 帕诺斯·科斯马图斯 Panos Cosmatos

◎主  演 尼古拉斯·凯奇 Nicolas Cage

      安德丽亚·瑞斯波罗格 Andrea Riseborough

      莱纳斯·罗彻 Linus Roache

      比尔·杜克 Bill Duke

      理查德·布雷克 Richard Brake

      Clément Baronnet

      奈德·丹内利 Ned Dennehy

      Ivailo Dimitrov

      欧文·富尔 Olwen Fouere

      Alexis Julemont


◎简  介


  影片故事发生在1983年,凯奇饰演的雷德·米勒是一位樵夫,与老婆曼蒂(安德丽亚·瑞斯波罗格 饰演)居住在深山林里的一栋木屋。老婆曼蒂被一个价值观扭曲的宗教组织“新黎明之子”(The Children of the New Dawn)看上。该组织的领头杰瑞马雅(莱纳斯·罗彻 饰演)欲收纳曼蒂入会未果,就在雷德面前活活把曼蒂烧死。雷德一度精神错乱,最终踏上复仇之路。


Video
ID : 1
Format : AVC
Format/Info : Advanced Video Codec
Format profile : High@L3.1
Format settings : CABAC / 5 Ref Frames
Format settings, CABAC : Yes
Format settings, ReFrames : 5 frames
Codec ID : V_MPEG4/ISO/AVC
Duration : 2 h 1 min
Bit rate : 1 913 kb/s
Width : 1 280 pixels
Height : 544 pixels
Display aspect ratio : 2.35:1
Original display aspect ratio : 2.35:1
Frame rate mode : Constant
Frame rate : 23.976 (24000/1001) FPS
Color space : YUV
Chroma subsampling : 4:2:0
Bit depth : 8 bits
Scan type : Progressive
Bits/(Pixel*Frame) : 0.115
Stream size : 1.62 GiB (75%)
Default : Yes
Forced : No
Color range : Limited
Color primaries : BT.709
Transfer characteristics : BT.709
Matrix coefficients : BT.709

Audio
ID : 2
Format : E-AC-3
Format/Info : Enhanced Audio Coding 3
Codec ID : A_EAC3
Duration : 2 h 1 min
Bit rate mode : Constant
Bit rate : 640 kb/s
Channel(s) : 6 channels
Channel positions : Front: L C R, Side: L R, LFE
Sampling rate : 48.0 kHz
Frame rate : 187.500 FPS (256 SPF)
Compression mode : Lossy
Stream size : 555 MiB (25%)
Language : English
Service kind : Complete Main
Default : Yes
Forced : No

Text #1
ID : 3
Format : UTF-8
Codec ID : S_TEXT/UTF8
Codec ID/Info : UTF-8 Plain Text
Duration : 1 h 59 min
Bit rate : 18 b/s
Count of elements : 697
Stream size : 16.0 KiB (0%)
Title : SDH
Language : English
Default : No
Forced : No

Text #2
ID : 4
Format : UTF-8
Codec ID : S_TEXT/UTF8
Codec ID/Info : UTF-8 Plain Text
Duration : 1 h 50 min
Bit rate : 14 b/s
Count of elements : 485
Stream size : 12.0 KiB (0%)
Language : Spanish
Default : No
Forced : No




1 个附件 售价 大小 下载 时间

Mandy.2018.720p.AMZN.WEBRip.DDP5.1.x264-NTG[btbtt.me].torrent 0 金币 43.75K 1477 次 2月前

#1楼
发帖时间:2018-09-14 18:24:05   |   回复数:4
勇往§直前
武林高手
【远鉴字幕组&翻托邦字幕组】《曼蒂》中英双语字幕
https://www.zimuku.cn/subs/47947.html
2月前 #2楼
911degrees
隐世仙人♂
非常感谢,谢谢分享
2月前 #3楼
liyouchai
超凡入圣№
谢谢楼主分享资源
2月前 #4楼
blue23
隐世仙人♂
感谢楼主分享
2月前 #5楼
游客组