aoloffline
版主

[2016] [欧美] [惊悚] [WEB-1080P] [BT下载]黑暗之屋 House.of.Darkness.2016.1080p.AMZN.WEBRip.DDP2.0.x264-ABM 4.46GB

-->

House.of.Darkness.2016.1080p.AMZN.WEBRip.DDP2.0.x264-ABM

◎译  名 黑暗之屋

◎片  名 House of Darkness

◎年  代 2016

◎产  地 美国

◎类  别 惊悚

◎语  言 英语

◎BT之家整理 http://www.btbtt.us/

◎导  演 Patrick DeLuca

◎主  演 Sara Fletcher, Gunner Wright, Mykayla Sohn


◎简  介


  A woman suspects her house is haunted as everyone around her begins thinking she's crazy.


Video
ID : 1
Format : AVC
Format/Info : Advanced Video Codec
Format profile : High@L4
Format settings : CABAC / 4 Ref Frames
Format settings, CABAC : Yes
Format settings, ReFrames : 4 frames
Codec ID : V_MPEG4/ISO/AVC
Duration : 1 h 25 min
Bit rate : 7 111 kb/s
Width : 1 920 pixels
Height : 1 080 pixels
Display aspect ratio : 16:9
Frame rate mode : Constant
Frame rate : 23.976 (24000/1001) FPS
Color space : YUV
Chroma subsampling : 4:2:0
Bit depth : 8 bits
Scan type : Progressive
Bits/(Pixel*Frame) : 0.143
Stream size : 4.24 GiB (95%)
Language : English
Default : Yes
Forced : No
Color range : Limited
Color primaries : BT.709
Transfer characteristics : BT.709
Matrix coefficients : BT.709

Audio
ID : 2
Format : E-AC-3
Format/Info : Enhanced Audio Coding 3
Codec ID : A_EAC3
Duration : 1 h 25 min
Bit rate mode : Constant
Bit rate : 224 kb/s
Channel(s) : 2 channels
Channel positions : Front: L R
Sampling rate : 48.0 kHz
Frame rate : 187.500 FPS (256 SPF)
Compression mode : Lossy
Stream size : 137 MiB (3%)
Language : English
Service kind : Complete Main
Default : Yes
Forced : No

Text #1
ID : 3
Format : UTF-8
Codec ID : S_TEXT/UTF8
Codec ID/Info : UTF-8 Plain Text
Language : English
Default : No
Forced : No

Text #2
ID : 4
Format : UTF-8
Codec ID : S_TEXT/UTF8
Codec ID/Info : UTF-8 Plain Text
Title : SDH
Language : English
Default : No
Forced : No




1 个附件 售价 大小 下载 时间

House.of.Darkness.2016.1080p.AMZN.WEBRip.DDP2.0.x264-ABM[btbtt.me].torrent 0 金币 89.71K 427 次 2月前

#1楼
发帖时间:2018-09-14 18:22:12   |   回复数:3
911degrees
隐世仙人♂
非常感谢,谢谢分享
2月前 #2楼
liyouchai
超凡入圣№
谢谢楼主分享资源
2月前 #3楼
blue23
隐世仙人♂
感谢楼主分享
2月前 #4楼
游客组