aoloffline
版主

[2018] [欧美] [惊悚] [WEB-1080P] [BT下载]电子恶魔 E-Demon.2018.1080p.AMZN.WEBRip.DDP2.0.x264-NTG 5.82GB

-->

E-Demon.2018.1080p.AMZN.WEBRip.DDP2.0.x264-NTG

◎译  名 电子恶魔

◎片  名 E-Demon

◎年  代 2018

◎产  地 美国

◎类  别 剧情/惊悚/恐怖

◎语  言 英语

◎上映日期 2018-09-14(美国)

◎BT之家整理 http://www.btbtt.us/

◎片  长 86分钟

◎导  演 Jeremy Wechter

◎主  演 Julia Kelly

      John Anthony Wylliams

      Christopher Daftsios

      Ryan Redebaugh

      Lindsay Goranson

      Jessica Renee Russell

      Cedric Cannon

      Vincent Cooper

      麦克斯·费舍尔 Max Rhyser

      Waltrudis Buck

      安德鲁·道森 Andrew Dawson

      Montgomery Sutton

      John Louis Fischer


◎简  介


  An escaped demon on a dark and twisted mission manipulates a group of friends hanging out on a video-chat. As more people get possessed, knowing who to trust is the key to survival.


Video
ID : 1
Format : AVC
Format/Info : Advanced Video Codec
Format profile : High@L4
Format settings : CABAC / 4 Ref Frames
Format settings, CABAC : Yes
Format settings, ReFrames : 4 frames
Codec ID : V_MPEG4/ISO/AVC
Duration : 1 h 25 min
Bit rate : 9 489 kb/s
Width : 1 920 pixels
Height : 1 080 pixels
Display aspect ratio : 16:9
Frame rate mode : Constant
Frame rate : 23.976 (24000/1001) FPS
Color space : YUV
Chroma subsampling : 4:2:0
Bit depth : 8 bits
Scan type : Progressive
Bits/(Pixel*Frame) : 0.191
Stream size : 5.68 GiB (98%)
Default : Yes
Forced : No
Color range : Limited
Color primaries : BT.709
Transfer characteristics : BT.709
Matrix coefficients : BT.709

Audio
ID : 2
Format : E-AC-3
Format/Info : Enhanced Audio Coding 3
Codec ID : A_EAC3
Duration : 1 h 25 min
Bit rate mode : Constant
Bit rate : 224 kb/s
Channel(s) : 2 channels
Channel positions : Front: L R
Sampling rate : 48.0 kHz
Frame rate : 187.500 FPS (256 SPF)
Compression mode : Lossy
Stream size : 137 MiB (2%)
Language : English
Service kind : Complete Main
Default : Yes
Forced : No




1 个附件 售价 大小 下载 时间

E-Demon.2018.1080p.AMZN.WEBRip.DDP2.0.x264-NTG[btbtt.me].torrent 0 金币 58.72K 462 次 7天前

#1楼
发帖时间:2018-09-14 18:15:17   |   回复数:3
911degrees
隐世仙人♂
非常感谢,谢谢分享
7天前 #2楼
liyouchai
超凡入圣№
谢谢楼主分享资源
7天前 #3楼
blue23
隐世仙人♂
感谢楼主分享
7天前 #4楼
游客组