aoloffline
版主

[2010] [欧美] [恐怖] [BD-1080P] [BT下载]原始恐惧 Primal.2010.1080p.BluRay.x264-7SinS 5.46GB

-->

Primal.2010.1080p.BluRay.x264-7SinS

◎译  名 原始恐惧

◎片  名 Primal

◎年  代 2010

◎产  地 澳大利亚

◎类  别 惊悚/恐怖

◎语  言 英语

◎上映日期 2011-05-07(日本)

◎IMDb评分  4.9/10 from 5,486 users

◎IMDb链接  http://www.imdb.com/title/tt1438534/

◎豆瓣评分 5.2/10 from 1,919 users

◎豆瓣链接 https://movie.douban.com/subject/5064521/

◎BT之家整理 http://www.btbtt.co 

◎导  演 Josh Reed

◎主  演 Zoe Tuckwell-Smith

      Krew Boylan

      Lindsay Farris


◎简  介


  讲述安雅和五个朋友一起在旅途研究远古岩画,去深山探险,他们到了一个森林后发现有一些原始的野蛮动物,并且他们相继被被感染怪异病毒,变异成怪物去袭击同伴,在逃亡中,令人感到悬念重重,疑问种种!谁也不知道这到底是什么原因?谁也不知道哪里会发生恐怖和袭击,更没有人知道哪里才是安全的,幸存者在一个个的减少,他们可以逃出生天,绝处逢生吗?


Video
ID : 1
Format : AVC
Format/Info : Advanced Video Codec
Format profile : High@L4.1
Format settings : CABAC / 4 Ref Frames
Format settings, CABAC : Yes
Format settings, ReFrames : 4 frames
Codec ID : V_MPEG4/ISO/AVC
Duration : 1 h 20 min
Bit rate : 9 447 kb/s
Width : 1 920 pixels
Height : 1 080 pixels
Display aspect ratio : 16:9
Frame rate mode : Constant
Frame rate : 25.000 FPS
Color space : YUV
Chroma subsampling : 4:2:0
Bit depth : 8 bits
Scan type : Progressive
Bits/(Pixel*Frame) : 0.182
Stream size : 5.22 GiB (96%)
Writing library : x264 core 114 r1913 5fd3dce
Encoding settings : cabac=1 / ref=4 / deblock=1:0:0 / analyse=0x3:0x133 / me=umh / subme=7 / psy=1 / psy_rd=1.00:0.00 / mixed_ref=1 / me_range=16 / chroma_me=1 / trellis=1 / 8x8dct=1 / cqm=0 / deadzone=21,11 / fast_pskip=0 / chroma_qp_offset=-2 / threads=12 / sliced_threads=0 / nr=0 / decimate=1 / interlaced=0 / constrained_intra=0 / bframes=3 / b_pyramid=2 / b_adapt=1 / b_bias=0 / direct=1 / weightb=1 / open_gop=0 / weightp=2 / keyint=250 / keyint_min=25 / scenecut=40 / intra_refresh=0 / rc_lookahead=40 / rc=2pass / mbtree=1 / bitrate=9447 / ratetol=1.0 / qcomp=0.60 / qpmin=0 / qpmax=69 / qpstep=4 / cplxblur=20.0 / qblur=0.5 / ip_ratio=1.40 / aq=1:1.00
Language : English
Default : No
Forced : No

Audio
ID : 2
Format : AC-3
Format/Info : Audio Coding 3
Codec ID : A_AC3
Duration : 1 h 20 min
Bit rate mode : Constant
Bit rate : 224 kb/s
Channel(s) : 2 channels
Channel positions : Front: L R
Sampling rate : 48.0 kHz
Frame rate : 31.250 FPS (1536 SPF)
Bit depth : 16 bits
Compression mode : Lossy
Stream size : 129 MiB (2%)
Language : English
Service kind : Complete Main
Default : Yes
Forced : No



1 个附件 售价 大小 下载 时间

Primal.2010.1080p.BluRay.x264-7SinS[btbtt.me].torrent 0 金币 55.05K 847 次 3月前

#1楼
发帖时间:2018-08-10 20:08:20   |   回复数:3
liyouchai
超凡入圣№
谢谢楼主分享资源
3月前 #2楼
911degrees
隐世仙人♂
非常感谢,谢谢分享
3月前 #3楼
blue23
隐世仙人♂
感谢楼主分享
3月前 #4楼
游客组