aoloffline
版主

[2011] [欧美] [犯罪] [BD-1080P] [BT下载]杰克遇挫 Jack.Falls.2011.1080p.BluRay.x264-7SinS 7.65GB

-->

Jack.Falls.2011.1080p.BluRay.x264-7SinS

◎译  名 杰克遇挫

◎片  名 Jack Falls

◎年  代 2011

◎产  地 英国

◎类  别 犯罪

◎语  言 英语

◎上映日期 2011-03-21(英国)

◎IMDb评分  4.3/10 from 1,083 users

◎IMDb链接  http://www.imdb.com/title/tt1381508/

◎豆瓣评分 5.2/10 from 246 users

◎豆瓣链接 https://movie.douban.com/subject/3562412/

◎BT之家整理 http://www.btbtt.co 

◎片  长 100分钟

◎导  演 Paul Tanter / Alexander Williams

◎主  演 塔梅尔·哈桑 Tamer Hassan

      西蒙·菲利普斯 Simon Phillips

      奥莉薇娅·哈琳安 Olivia Hallinan


◎简  介


  英国黑帮片“杰克三部曲”的终结篇,讲述前卧底警官Jack Adleth,返回伦敦寻找那些试图在阿姆斯特丹杀他的人。


Video
ID : 1
Format : AVC
Format/Info : Advanced Video Codec
Format profile : High@L4.1
Format settings : CABAC / 5 Ref Frames
Format settings, CABAC : Yes
Format settings, ReFrames : 5 frames
Codec ID : V_MPEG4/ISO/AVC
Duration : 1 h 40 min
Bit rate : 9 362 kb/s
Width : 1 920 pixels
Height : 816 pixels
Display aspect ratio : 2.35:1
Frame rate mode : Constant
Frame rate : 25.000 FPS
Color space : YUV
Chroma subsampling : 4:2:0
Bit depth : 8 bits
Scan type : Progressive
Bits/(Pixel*Frame) : 0.239
Stream size : 6.43 GiB (84%)
Writing library : x264 core 114 r1913 5fd3dce
Encoding settings : cabac=1 / ref=5 / deblock=1:0:0 / analyse=0x3:0x133 / me=umh / subme=7 / psy=1 / psy_rd=1.00:0.00 / mixed_ref=1 / me_range=16 / chroma_me=1 / trellis=1 / 8x8dct=1 / cqm=0 / deadzone=21,11 / fast_pskip=0 / chroma_qp_offset=-2 / threads=12 / sliced_threads=0 / nr=0 / decimate=1 / interlaced=0 / constrained_intra=0 / bframes=3 / b_pyramid=2 / b_adapt=1 / b_bias=0 / direct=1 / weightb=1 / open_gop=0 / weightp=2 / keyint=250 / keyint_min=25 / scenecut=40 / intra_refresh=0 / rc_lookahead=40 / rc=2pass / mbtree=1 / bitrate=9362 / ratetol=1.0 / qcomp=0.60 / qpmin=0 / qpmax=69 / qpstep=4 / cplxblur=20.0 / qblur=0.5 / ip_ratio=1.40 / aq=1:1.00
Language : English
Default : Yes
Forced : No

Audio
ID : 2
Format : DTS
Format/Info : Digital Theater Systems
Codec ID : A_DTS
Duration : 1 h 40 min
Bit rate mode : Constant
Bit rate : 1 509 kb/s
Channel(s) : 6 channels
Channel positions : Front: L C R, Side: L R, LFE
Sampling rate : 48.0 kHz
Frame rate : 93.750 FPS (512 SPF)
Bit depth : 24 bits
Compression mode : Lossy
Stream size : 1.06 GiB (14%)
Language : English
Default : Yes
Forced : No

Text
ID : 3
Format : UTF-8
Codec ID : S_TEXT/UTF8
Codec ID/Info : UTF-8 Plain Text
Language : English
Default : Yes
Forced : No




1 个附件 售价 大小 下载 时间

Jack.Falls.2011.1080p.BluRay.x264-7SinS[btbtt.me].torrent 0 金币 76.96K 280 次 11天前

#1楼
发帖时间:2018-08-10 19:54:49   |   回复数:3
liyouchai
超凡入圣№
谢谢楼主分享资源
11天前 #2楼
911degrees
隐世仙人♂
非常感谢,谢谢分享
11天前 #3楼
blue23
隐世仙人♂
感谢楼主分享
10天前 #4楼
游客组