aoloffline
版主

[更 早] [欧美] [喜剧] [WEB-1080P] [BT下载]日落大道 Sunset.Strip.2000.1080p.AMZN.WEBRip.DDP5.1.x264-monkee 6.7GB

-->

Sunset.Strip.2000.1080p.AMZN.WEBRip.DDP5.1.x264-monkee


◎译  名 日落大道

◎片  名 Sunset Strip

◎年  代 2000

◎产  地 美国

◎类  别 喜剧/剧情

◎语  言 英语

◎上映日期 2000-08-18

◎IMDb评分  5.7/10 from 1,340 users

◎IMDb链接  http://www.imdb.com/title/tt0178050/

◎豆瓣评分 7.1/10 from 103 users

◎豆瓣链接 https://movie.douban.com/subject/1478007/

◎BT之家整理 http://www.btbtt.co

◎片  长 90 分钟

◎导  演 Adam Collis

◎主  演 杰瑞德·莱托 Jared Leto

      朱迪·格雷尔 Judy Greer

      安娜·弗莱尔 Anna Friel

      西蒙·贝克 Simon Baker

      尼克·斯塔尔 Nick Stahl


◎简  介


  A day in Hollywood| 1972| with young people looking for the 24 hours that will change their lives. Zach will open that night for a British rocker at Whisky a Go-Go;he lives in a canyon and plays impromptu duets with a mysterious guitarist he doesn't see. Tammy is a costume designer| open to quick sex with the various rockersshe works with and loved from afar by Michael| a photographer recovering from a case of the clap. His good friend is Felix| a morose| alcoholic songwriter. On handfor comic relief is Marty Shapiro| a fast-talking record producer. Getting ready for the gig at the club| Zach's performance| and the early-morning aftermathcomprise the film.


Video
ID                                       : 1
Format                                   : AVC
Format/Info                              : Advanced Video Codec
Format profile                           : High@L4
Format settings                          : CABAC / 4 Ref Frames
Format settings, CABAC                   : Yes
Format settings, ReFrames                : 4 frames
Codec ID                                 : V_MPEG4/ISO/AVC
Duration                                 : 1 h 30 min
Bit rate mode                            : Variable
Bit rate                                 : 10.0 Mb/s
Maximum bit rate                         : 15.0 Mb/s
Width                                    : 1 920 pixels
Height                                   : 1 080 pixels
Display aspect ratio                     : 16:9
Frame rate mode                          : Constant
Frame rate                               : 23.976 (24000/1001) FPS
Color space                              : YUV
Chroma subsampling                       : 4:2:0
Bit depth                                : 8 bits
Scan type                                : Progressive
Bits/(Pixel*Frame)                       : 0.201
Stream size                              : 6.30 GiB (94%)
Default                                  : Yes
Forced                                   : No
Color range                              : Limited
Color primaries                          : BT.709
Transfer characteristics                 : BT.709
Matrix coefficients                      : BT.709

Audio
ID                                       : 2
Format                                   : E-AC-3
Format/Info                              : Enhanced Audio Coding 3
Codec ID                                 : A_EAC3
Duration                                 : 1 h 30 min
Bit rate mode                            : Constant
Bit rate                                 : 640 kb/s
Channel(s)                               : 6 channels
Channel positions                        : Front: L C R, Side: L R, LFE
Sampling rate                            : 48.0 kHz
Frame rate                               : 187.500 FPS (256 SPF)
Compression mode                         : Lossy
Stream size                              : 412 MiB (6%)
Language                                 : English
Service kind                             : Complete Main
Default                                  : Yes
Forced                                   : No

Text
ID                                       : 3
Format                                   : UTF-8
Codec ID                                 : S_TEXT/UTF8
Codec ID/Info                            : UTF-8 Plain Text
Duration                                 : 1 h 29 min
Bit rate                                 : 55 b/s
Count of elements                        : 1546
Stream size                              : 36.4 KiB (0%)
Language                                 : English
Default                                  : No
Forced                                   : No




1 个附件 售价 大小 下载 时间

Sunset.Strip.2000.1080p.AMZN.WEBRip.DDP5.1.x264-monkee[btbtt.me].torrent 0 金币 67.52K 784 次 9月前

#1楼
发帖时间:2018-03-13 22:17:46   |   回复数:4
blue23
隐世仙人♂
感谢楼主分享
9月前 #2楼
liang3109
武林高手
多谢楼主分享。
9月前 #3楼
liyouchai
超凡入圣№
谢谢楼主分享资源
9月前 #4楼
911degrees
隐世仙人♂
非常感谢,谢谢分享
9月前 #5楼
游客组