aoloffline
版主

[2017] [欧美] [喜剧] [WEB-1080P] [BT下载]坏奶奶 Bad.Grandmas.2017.1080p.AMZN.WEBRip.DD5.1.x264-QOQ 5GB

-->

Bad.Grandmas.2017.1080p.AMZN.WEBRip.DD5.1.x264-QOQ


◎译  名 坏奶奶

◎片  名 Bad Grandmas

◎年  代 2017

◎产  地 美国

◎类  别 喜剧/动作/犯罪

◎语  言 英语

◎上映日期 2017-10-06(美国)

◎IMDb评分  4.2/10 from 180 users

◎IMDb链接  http://www.imdb.com/title/tt4792524/

◎BT之家整理 http://www.btbtt.co

◎片  长 93

◎导  演 Srikant Chellappa

◎主  演 Pam Grier

      Judge Reinhold

      Randall Batinkoff

      Florence Henderson

      Tamitra Williford

      Miriam Parrish

      Daniel Byington

      Jilanne Marie Klaus

      Susie Wall


◎简  介


  Four grandmothers accidentally kill a con man. When his partner shows up, things go south quickly.


Video
ID                                       : 1
Format                                   : AVC
Format/Info                              : Advanced Video Codec
Format profile                           : High@L4
Format settings                          : CABAC / 4 Ref Frames
Format settings, CABAC                   : Yes
Format settings, ReFrames                : 4 frames
Codec ID                                 : V_MPEG4/ISO/AVC
Duration                                 : 1 h 32 min
Bit rate mode                            : Variable
Bit rate                                 : 7 258 kb/s
Maximum bit rate                         : 15.0 Mb/s
Width                                    : 1 920 pixels
Height                                   : 960 pixels
Display aspect ratio                     : 2.000
Frame rate mode                          : Constant
Frame rate                               : 23.976 (24000/1001) FPS
Color space                              : YUV
Chroma subsampling                       : 4:2:0
Bit depth                                : 8 bits
Scan type                                : Progressive
Bits/(Pixel*Frame)                       : 0.164
Stream size                              : 4.66 GiB (92%)
Default                                  : Yes
Forced                                   : No
Color range                              : Limited
Color primaries                          : BT.709
Transfer characteristics                 : BT.709
Matrix coefficients                      : BT.709

Audio
ID                                       : 2
Format                                   : E-AC-3
Format/Info                              : Enhanced Audio Coding 3
Codec ID                                 : A_EAC3
Duration                                 : 1 h 32 min
Bit rate mode                            : Constant
Bit rate                                 : 640 kb/s
Channel(s)                               : 6 channels
Channel positions                        : Front: L C R, Side: L R, LFE
Sampling rate                            : 48.0 kHz
Frame rate                               : 187.500 FPS (256 SPF)
Compression mode                         : Lossy
Stream size                              : 421 MiB (8%)
Language                                 : English
Service kind                             : Complete Main
Default                                  : Yes
Forced                                   : No

Text #1
ID                                       : 3
Format                                   : UTF-8
Codec ID                                 : S_TEXT/UTF8
Codec ID/Info                            : UTF-8 Plain Text
Duration                                 : 1 h 31 min
Bit rate                                 : 65 b/s
Count of elements                        : 1525
Stream size                              : 44.2 KiB (0%)
Language                                 : English
Default                                  : No
Forced                                   : No

Text #2
ID                                       : 4
Format                                   : UTF-8
Codec ID                                 : S_TEXT/UTF8
Codec ID/Info                            : UTF-8 Plain Text
Duration                                 : 1 h 31 min
Bit rate                                 : 71 b/s
Count of elements                        : 1712
Stream size                              : 48.2 KiB (0%)
Title                                    : SDH
Language                                 : English
Default                                  : No
Forced                                   : No




1 个附件 售价 大小 下载 时间

A.True.Story.2013.1080p.AMZN.WEBRip.DD2.0.x264-QOQ[btbtt.me].torrent 0 金币 69.72K 1211 次 9月前

#1楼
发帖时间:2018-03-13 22:00:27   |   回复数:5
blue23
隐世仙人♂
感谢楼主分享
9月前 #2楼
linyihuangwei
武林盟主
谢谢分享
9月前 #3楼
liang3109
武林高手
多谢楼主分享。
9月前 #4楼
liyouchai
超凡入圣№
谢谢楼主分享资源
9月前 #5楼
911degrees
隐世仙人♂
非常感谢,谢谢分享
9月前 #6楼
游客组