aoloffline
版主

[2017] [欧美] [喜剧] [WEB-1080P] [BT下载]Tim.Timmerman.Hope.of.America.2017.1080p.WEB-DL.DD5.1.H264-FGT 3.8GB

-->

Tim.Timmerman.Hope.of.America.2017.1080p.WEB-DL.DD5.1.H264-FGT

◎译  名 

◎片  名 Tim Timmerman, Hope of America

◎年  代 2017

◎产  地 美国

◎类  别 喜剧

◎语  言 英语

◎上映日期 2017-03-03(美国)

◎IMDb评分  6.8/10 from 167 users

◎IMDb链接  http://www.imdb.com/title/tt4514646/

◎BT之家整理 http://www.btbtt.co

◎片  长 94分钟

◎导  演 Cameron Sawyer


◎简  介


  It's 1994. Mount Vista High's student body president Tim Timmerman has aspirations of attending Yale and becoming a famous politician. Tim realizes the quickestpathway to Washington is befriending Sydney and rubbing shoulders with her father| Senator Anderson. Nothing can stop Tim from reaching the top...except himself.


Video
ID                                       : 1
Format                                   : AVC
Format/Info                              : Advanced Video Codec
Format profile                           : High@L4
Format settings                          : CABAC / 4 Ref Frames
Format settings, CABAC                   : Yes
Format settings, ReFrames                : 4 frames
Codec ID                                 : V_MPEG4/ISO/AVC
Duration                                 : 1 h 38 min
Bit rate                                 : 5 208 kb/s
Width                                    : 1 912 pixels
Height                                   : 1 032 pixels
Display aspect ratio                     : 1.85:1
Frame rate mode                          : Constant
Frame rate                               : 23.976 (23976/1000) FPS
Color space                              : YUV
Chroma subsampling                       : 4:2:0
Bit depth                                : 8 bits
Scan type                                : Progressive
Bits/(Pixel*Frame)                       : 0.110
Stream size                              : 3.58 GiB (93%)
Title                                    : Tim.Timmerman.Hope.of.America.2017.1080p.WEB-DL.DD5.1.H.264-FGT
Language                                 : English
Default                                  : Yes
Forced                                   : No
Color range                              : Limited
Color primaries                          : BT.709
Transfer characteristics                 : BT.709
Matrix coefficients                      : BT.709

Audio
ID                                       : 2
Format                                   : AC-3
Format/Info                              : Audio Coding 3
Codec ID                                 : A_AC3
Duration                                 : 1 h 38 min
Bit rate mode                            : Constant
Bit rate                                 : 384 kb/s
Channel(s)                               : 6 channels
Channel positions                        : Front: L C R, Side: L R, LFE
Sampling rate                            : 48.0 kHz
Frame rate                               : 31.250 FPS (1536 SPF)
Bit depth                                : 16 bits
Compression mode                         : Lossy
Stream size                              : 271 MiB (7%)
Title                                    : Tim.Timmerman.Hope.of.America.2017.1080p.WEB-DL.DD5.1.H.264-FGT
Language                                 : English
Service kind                             : Complete Main
Default                                  : Yes
Forced                                   : No

Text
ID                                       : 3
Format                                   : UTF-8
Codec ID                                 : S_TEXT/UTF8
Codec ID/Info                            : UTF-8 Plain Text
Duration                                 : 1 h 35 min
Bit rate                                 : 70 b/s
Count of elements                        : 1652
Stream size                              : 49.0 KiB (0%)
Language                                 : English
Default                                  : No
Forced                                   : No

Menu
00:00:00.000                             : en:1
00:08:47.777                             : en:2
00:18:11.882                             : en:3
00:28:05.100                             : en:4
00:39:54.267                             : en:5
00:50:31.070                             : en:6
01:00:56.945                             : en:7
01:12:52.410                             : en:8
01:23:50.359                             : en:9
01:34:52.062                             : en:10




1 个附件 售价 大小 下载 时间

Tim.Timmerman.Hope.of.America.2017.1080p.WEB-DL.DD5.1.H264-FGT[btbtt.me].torrent 0 金币 77.56K 742 次 9月前

#1楼
发帖时间:2018-03-13 19:22:04   |   回复数:3
blue23
隐世仙人♂
感谢楼主分享
9月前 #2楼
liyouchai
超凡入圣№
谢谢楼主分享资源
9月前 #3楼
911degrees
隐世仙人♂
非常感谢,谢谢分享
9月前 #4楼
游客组