aoloffline
版主

[更 早] [欧美] [喜剧] [WEB-1080P] [BT下载]猎爱高手 Three.of.Hearts.1993.1080p.WEB-DL.AAC2.0.H264-FGT 3.9GB

-->

Three.of.Hearts.1993.1080p.WEB-DL.AAC2.0.H264-FGT

◎译  名 猎爱高手/三颗拳拳的心/三颗心

◎片  名 Three of Hearts

◎年  代 1993

◎产  地 美国

◎类  别 喜剧/爱情

◎语  言 英语

◎上映日期 1993-04-30

◎IMDb评分  5.5/10 from 1,729 users

◎IMDb链接  http://www.imdb.com/title/tt0108334/

◎豆瓣评分 6.9/10 from 22 users

◎豆瓣链接 https://movie.douban.com/subject/1295598/

◎BT之家整理 http://www.btbtt.co

◎片  长 Argentina: 106 分钟/UK: 110 分钟/USA: 102 分钟

◎导  演 尤瑞克 保佳耶维奇 (Yurek Bogayevicz)

◎主  演 William Baldwin

      Kelly Lynch

      Sherilyn Fenn


◎简  介


  A lesbian hires a male escort to hire and then dump her former lover, in the hope that the lover will then be driven back into her arms. The situation becomes complicated when the escort and the lover fall in love.



Video
ID                                       : 1
Format                                   : AVC
Format/Info                              : Advanced Video Codec
Format profile                           : High@L4
Format settings                          : CABAC / 4 Ref Frames
Format settings, CABAC                   : Yes
Format settings, ReFrames                : 4 frames
Codec ID                                 : V_MPEG4/ISO/AVC
Duration                                 : 1 h 44 min
Bit rate                                 : 5 286 kb/s
Width                                    : 1 916 pixels
Height                                   : 1 076 pixels
Display aspect ratio                     : 16:9
Frame rate mode                          : Constant
Frame rate                               : 23.976 (23976/1000) FPS
Color space                              : YUV
Chroma subsampling                       : 4:2:0
Bit depth                                : 8 bits
Scan type                                : Progressive
Bits/(Pixel*Frame)                       : 0.107
Stream size                              : 3.84 GiB (98%)
Title                                    : Three.of.Hearts.1993.1080p.WEB-DL.AAC.2.0.H.264-FGT
Language                                 : English
Default                                  : Yes
Forced                                   : No
Color range                              : Limited
Color primaries                          : BT.709
Transfer characteristics                 : BT.709
Matrix coefficients                      : BT.709

Audio
ID                                       : 2
Format                                   : AAC
Format/Info                              : Advanced Audio Codec
Format profile                           : LC
Codec ID                                 : A_AAC-2
Duration                                 : 1 h 44 min
Bit rate                                 : 124 kb/s
Channel(s)                               : 2 channels
Channel positions                        : Front: L R
Sampling rate                            : 48.0 kHz
Frame rate                               : 46.875 FPS (1024 SPF)
Compression mode                         : Lossy
Stream size                              : 92.6 MiB (2%)
Title                                    : Three.of.Hearts.1993.1080p.WEB-DL.AAC.2.0.H.264-FGT
Language                                 : English
Default                                  : Yes
Forced                                   : No

Text
ID                                       : 3
Format                                   : UTF-8
Codec ID                                 : S_TEXT/UTF8
Codec ID/Info                            : UTF-8 Plain Text
Duration                                 : 1 h 43 min
Bit rate                                 : 61 b/s
Count of elements                        : 1978
Stream size                              : 47.0 KiB (0%)
Language                                 : English
Default                                  : Yes
Forced                                   : No

Menu
00:00:00.000                             : en:Main Title/Lovers Break Up
00:04:59.000                             : en:Get The Money First
00:09:38.000                             : en:Stumbling With Relationships
00:13:47.000                             : enerfect Wedding Date
00:24:28.000                             : en:The Cards Are Stacked
00:29:37.000                             : en:Tragic Love Story
00:33:55.000                             : en:A Loaded Gun
00:45:10.000                             : en:The Walk You Talk
00:52:40.000                             : en:Impromptu Dinner
00:57:29.000                             : en:Shifts In The Game
01:09:17.000                             : en:Rough Reality
01:15:25.000                             : en:I Own You Till Tomorrow
01:18:35.000                             : enlaying For Hearts
01:21:25.000                             : en:What Are You Gonna Do
01:24:07.000                             : en:Joe Pays The Price
01:28:51.000                             : en:Called On The Carpet
01:31:19.000                             : en:Love Can\'t Be Controlled
01:34:14.000                             : en:Trust The Words
01:37:26.000                             : en:What Now, Dr. Love
01:39:33.000                             : en:End Credits




1 个附件 售价 大小 下载 时间

Three.of.Hearts.1993.1080p.WEB-DL.AAC2.0.H264-FGT[btbtt.me].torrent 0 金币 79.27K 1890 次 9月前

#1楼
发帖时间:2018-03-13 19:17:57   |   回复数:3
blue23
隐世仙人♂
感谢楼主分享
9月前 #2楼
liyouchai
超凡入圣№
谢谢楼主分享资源
9月前 #3楼
911degrees
隐世仙人♂
非常感谢,谢谢分享
9月前 #4楼
游客组