aoloffline
版主

[2013] [欧美] [纪录] [BD-4K] [BT下载]冰河时代的巨人 2013.DOCU.2160p.BluRay.x264.8bit.SDR.DTS-SWTYBLZ 14GB

-->

Titans.of.the.Ice.Age.2013.DOCU.2160p.BluRay.x264.8bit.SDR.DTS-HD.MA.5.1-SWTYBLZ

◎译  名 冰河时代的巨人

◎片  名 Titans of the Ice Age

◎年  代 2013

◎产  地 美国

◎类  别 纪录片

◎语  言 英语

◎上映日期 2013-02-15

◎IMDb评分  6.8/10 from 119 users

◎IMDb链接  http://www.imdb.com/title/tt2653370/

◎豆瓣评分 7.5/10 from 22 users

◎豆瓣链接 https://movie.douban.com/subject/22991882/

◎BT之家整理 http://www.btbtt.co 

◎导  演 大卫·克拉克 David Clark

◎主  演 克里斯托弗·普卢默 Christopher Plummer


◎简  介


  《冰河时代的巨人》引领观众回到现代文明诞生前的一万年前,在那个历史时期,人类与巨型动物共同生存在奇异壮观的冰封大陆上。本片尽可能真实的还原了北美、欧洲、亚洲大陆的壮丽地貌,利用炫目的CGI技术重塑了长毛象、剑齿虎、冰原狼等冰河时代生物,对冰河时代感兴趣的观众们来说,本片绝对是不应错过的一次饕餮盛宴。与此同时,影片还探索了可持续环境发展,在极端环境中存活等重要课题。



Video
ID                                       : 1
Format                                   : AVC
Format/Info                              : Advanced Video Codec
Format profile                           : High@L5.1
Format settings                          : CABAC / 5 Ref Frames
Format settings, CABAC                   : Yes
Format settings, RefFrames               : 5 frames
Codec ID                                 : V_MPEG4/ISO/AVC
Duration                                 : 38 min 4 s
Bit rate                                 : 50.6 Mb/s
Width                                    : 3 840 pixels
Height                                   : 2 160 pixels
Display aspect ratio                     : 16:9
Frame rate mode                          : Constant
Frame rate                               : 23.976 (24000/1001) FPS
Color space                              : YUV
Chroma subsampling                       : 4:2:0
Bit depth                                : 8 bits
Scan type                                : Progressive
Bits/(Pixel*Frame)                       : 0.254
Stream size                              : 13.5 GiB (91%)
Title                                    : Titans.of.the.Ice.Age.2013.DOCU.2160p.BluRay.x264.8bit.SDR.DTS-HD.MA.5.1-SWTYBLZ
Writing library                          : x264 core 155 r2901 7d0ff22
Encoding settings                        : cabac=1 / ref=5 / deblock=1:-1:-1 / analyse=0x3:0x113 / me=umh / subme=10 / psy=1 / psy_rd=1.00:0.15 / mixed_ref=1 / me_range=48 / chroma_me=1 / trellis=2 / 8x8dct=1 / cqm=0 / deadzone=21,11 / fast_pskip=1 / chroma_qp_offset=-3 / threads=67 / lookahead_threads=5 / sliced_threads=0 / nr=0 / decimate=0 / interlaced=0 / bluray_compat=0 / constrained_intra=0 / bframes=3 / b_pyramid=2 / b_adapt=2 / b_bias=0 / direct=3 / weightb=1 / open_gop=0 / weightp=2 / keyint=250 / keyint_min=23 / scenecut=40 / intra_refresh=0 / rc_lookahead=50 / rc=crf / mbtree=1 / crf=18.0 / qcomp=0.60 / qpmin=0 / qpmax=69 / qpstep=4 / ip_ratio=1.40 / aq=1:1.00
Language                                 : English
Default                                  : Yes
Forced                                   : No

Audio #1
ID                                       : 2
Format                                   : DTS
Format/Info                              : Digital Theater Systems
Format profile                           : MA / Core
Codec ID                                 : A_DTS
Duration                                 : 38 min 4 s
Bit rate mode                            : Variable / Constant
Bit rate                                 : 4 027 kb/s / 1 509 kb/s
Channel(s)                               : 6 channels
Channel positions                        : Front: L C R, Side: L R, LFE
Sampling rate                            : 48.0 kHz
Frame rate                               : 93.750 FPS (512 SPF)
Bit depth                                : 24 bits
Compression mode                         : Lossless / Lossy
Stream size                              : 1.07 GiB (7%)
Title                                    : Titans.of.the.Ice.Age.2013.DOCU.2160p.BluRay.x264.8bit.SDR.DTS-HD.MA.5.1-SWTYBLZ
Language                                 : English
Default                                  : Yes
Forced                                   : No

Audio #2
ID                                       : 3
Format                                   : AC-3
Format/Info                              : Audio Coding 3
Codec ID                                 : A_AC3
Duration                                 : 38 min 4 s
Bit rate mode                            : Constant
Bit rate                                 : 640 kb/s
Channel(s)                               : 6 channels
Channel positions                        : Front: L C R, Side: L R, LFE
Sampling rate                            : 48.0 kHz
Frame rate                               : 31.250 FPS (1536 SPF)
Bit depth                                : 16 bits
Compression mode                         : Lossy
Stream size                              : 174 MiB (1%)
Title                                    : Titans.of.the.Ice.Age.2013.DOCU.2160p.BluRay.x264.8bit.SDR.DTS-HD.MA.5.1-SWTYBLZ
Language                                 : English
Service kind                             : Complete Main
Default                                  : No
Forced                                   : No

Text #1
ID                                       : 4
Format                                   : UTF-8
Codec ID                                 : S_TEXT/UTF8
Codec ID/Info                            : UTF-8 Plain Text
Duration                                 : 34 min 36 s
Bit rate                                 : 66 b/s
Count of elements                        : 335
Stream size                              : 16.8 KiB (0%)
Title                                    : English-SRT
Language                                 : English
Default                                  : Yes
Forced                                   : No

Text #2
ID                                       : 5
Format                                   : PGS
Muxing mode                              : zlib
Codec ID                                 : S_HDMV/PGS
Codec ID/Info                            : Picture based subtitle format used on BDs/HD-DVDs
Duration                                 : 35 min 12 s
Bit rate                                 : 42.6 kb/s
Count of elements                        : 792
Stream size                              : 10.7 MiB (0%)
Title                                    : English-PGS
Language                                 : English
Default                                  : No
Forced                                   : No

Text #3
ID                                       : 6
Format                                   : PGS
Muxing mode                              : zlib
Codec ID                                 : S_HDMV/PGS
Codec ID/Info                            : Picture based subtitle format used on BDs/HD-DVDs
Duration                                 : 37 min 3 s
Bit rate                                 : 41.7 kb/s
Count of elements                        : 666
Stream size                              : 11.0 MiB (0%)
Title                                    : French-PGS
Language                                 : French
Default                                  : No
Forced                                   : No

Text #4
ID                                       : 7
Format                                   : PGS
Muxing mode                              : zlib
Codec ID                                 : S_HDMV/PGS
Codec ID/Info                            : Picture based subtitle format used on BDs/HD-DVDs
Duration                                 : 37 min 3 s
Bit rate                                 : 36.2 kb/s
Count of elements                        : 664
Stream size                              : 9.60 MiB (0%)
Title                                    : Danish-PGS
Language                                 : Danish
Default                                  : No
Forced                                   : No

Text #5
ID                                       : 8
Format                                   : PGS
Muxing mode                              : zlib
Codec ID                                 : S_HDMV/PGS
Codec ID/Info                            : Picture based subtitle format used on BDs/HD-DVDs
Duration                                 : 37 min 3 s
Bit rate                                 : 40.7 kb/s
Count of elements                        : 664
Stream size                              : 10.8 MiB (0%)
Title                                    : Dutch-PGS
Language                                 : Dutch
Default                                  : No
Forced                                   : No

Text #6
ID                                       : 9
Format                                   : PGS
Muxing mode                              : zlib
Codec ID                                 : S_HDMV/PGS
Codec ID/Info                            : Picture based subtitle format used on BDs/HD-DVDs
Duration                                 : 37 min 3 s
Bit rate                                 : 38.8 kb/s
Count of elements                        : 664
Stream size                              : 10.3 MiB (0%)
Title                                    : Finnish-PGS
Language                                 : Finnish
Default                                  : No
Forced                                   : No

Text #7
ID                                       : 10
Format                                   : PGS
Muxing mode                              : zlib
Codec ID                                 : S_HDMV/PGS
Codec ID/Info                            : Picture based subtitle format used on BDs/HD-DVDs
Duration                                 : 37 min 3 s
Bit rate                                 : 41.3 kb/s
Count of elements                        : 664
Stream size                              : 10.9 MiB (0%)
Title                                    : German-PGS
Language                                 : German
Default                                  : No
Forced                                   : No

Text #8
ID                                       : 11
Format                                   : PGS
Muxing mode                              : zlib
Codec ID                                 : S_HDMV/PGS
Codec ID/Info                            : Picture based subtitle format used on BDs/HD-DVDs
Duration                                 : 37 min 3 s
Bit rate                                 : 36.2 kb/s
Count of elements                        : 664
Stream size                              : 9.60 MiB (0%)
Title                                    : Norwegian-PGS
Language                                 : Norwegian
Default                                  : No
Forced                                   : No

Text #9
ID                                       : 12
Format                                   : PGS
Muxing mode                              : zlib
Codec ID                                 : S_HDMV/PGS
Codec ID/Info                            : Picture based subtitle format used on BDs/HD-DVDs
Duration                                 : 37 min 3 s
Bit rate                                 : 36.2 kb/s
Count of elements                        : 664
Stream size                              : 9.59 MiB (0%)
Title                                    : Swedish-PGS
Language                                 : Swedish
Default                                  : No
Forced                                   : No

Menu
00:00:00.000                             : en:Chapter 1
00:02:38.408                             : en:Chapter 2
00:04:45.368                             : en:Chapter 3
00:06:17.168                             : en:Chapter 4
00:09:14.387                             : en:Chapter 5
00:11:03.788                             : en:Chapter 6
00:14:04.593                             : en:Chapter 7
00:16:29.655                             : en:Chapter 8
00:18:29.900                             : en:Chapter 9
00:19:40.637                             : en:Chapter 10
00:21:39.256                             : en:Chapter 11
00:22:16.168                             : en:Chapter 12
00:23:29.324                             : en:Chapter 13
00:26:55.363                             : en:Chapter 14
00:28:36.089                             : en:Chapter 15
00:29:43.364                             : en:Chapter 16
00:33:13.366                             : en:Chapter 17
00:35:58.865                             : en:Chapter 18






1 个附件 售价 大小 下载 时间

Titans.of.the.Ice.Age.2013.DOCU.2160p.BluRay.x264.8bit.SDR.DTS-HD.MA.5.1-SWTYBLZ[btbtt.me].torrent 0 金币 75.36K 1204 次 3月前

#1楼
发帖时间:2018-02-14 17:07:58   |   回复数:4
liyouchai
超凡入圣№
谢谢楼主分享资源
3月前 #2楼
thxbth
版主
谢楼主分享ヾ(◍°∇°◍)ノ゙
3月前 #3楼
blue23
隐世仙人♂
感谢楼主分享
3月前 #4楼
jokingcheung
武林盟主
谢谢分享
2月前 #5楼
游客组