aoloffline
版主

[2014] [欧美] [纪录] [BD-2160P] [BT下载]南极3D:在边缘 2014.DOCU.2160p.BluRay.x264.8bit.SDR.DTS-SWTYBLZ 10GB

-->

Antarctica.On.the.Edge.2014.DOCU.2160p.BluRay.x264.8bit.SDR.DTS-HD.MA.5.1-SWTYBLZ

◎译  名 南极3D:在边缘

◎片  名 Antarctica 3D: On the Edge

◎年  代 2014

◎产  地 美国

◎类  别 纪录片/短片

◎语  言 英语

◎上映日期 2014-10-19(美国)

◎BT之家整理 http://www.btbtt.co 

◎片  长 40分钟

◎导  演 Jon Bowermaster

◎主  演 Tilda Swinton


◎简  介


  Antarctica lives in our dreams as the most remote| the most forbidding continent on Planet Earth. It is a huge land covered with ice as thick as three miles|seemingly invulnerable| cold and dark for eight months of the year. Yet Antarctica is also a fragile place| home to an incredible variety of life along its edges|arguably the most stunning| breathtaking and still-pristine place on earth. The one constant is that it is constantly changing| every season| every day| every hour.I've been fortunate to travel to Antarctica many times; most recently with 3D cameras| a first for the continent. The result is our new film| Antarctica: On theEdge.


Video
ID                                       : 1
Format                                   : AVC
Format/Info                              : Advanced Video Codec
Format profile                           : High@L5.1
Format settings                          : CABAC / 5 Ref Frames
Format settings, CABAC                   : Yes
Format settings, RefFrames               : 5 frames
Codec ID                                 : V_MPEG4/ISO/AVC
Duration                                 : 36 min 45 s
Bit rate                                 : 33.8 Mb/s
Width                                    : 3 840 pixels
Height                                   : 2 160 pixels
Display aspect ratio                     : 16:9
Frame rate mode                          : Constant
Frame rate                               : 23.976 (24000/1001) FPS
Color space                              : YUV
Chroma subsampling                       : 4:2:0
Bit depth                                : 8 bits
Scan type                                : Progressive
Bits/(Pixel*Frame)                       : 0.170
Stream size                              : 8.67 GiB (87%)
Title                                    : Antarctica.On.the.Edge.2014.DOCU.2160p.BluRay.x264.8bit.SDR.DTS-HD.MA.5.1-SWTYBLZ
Writing library                          : x264 core 155 r2901 7d0ff22
Encoding settings                        : cabac=1 / ref=5 / deblock=1:-1:-1 / analyse=0x3:0x113 / me=umh / subme=10 / psy=1 / psy_rd=1.00:0.15 / mixed_ref=1 / me_range=48 / chroma_me=1 / trellis=2 / 8x8dct=1 / cqm=0 / deadzone=21,11 / fast_pskip=1 / chroma_qp_offset=-3 / threads=36 / lookahead_threads=3 / sliced_threads=0 / nr=0 / decimate=0 / interlaced=0 / bluray_compat=0 / constrained_intra=0 / bframes=3 / b_pyramid=2 / b_adapt=2 / b_bias=0 / direct=3 / weightb=1 / open_gop=0 / weightp=2 / keyint=250 / keyint_min=23 / scenecut=40 / intra_refresh=0 / rc_lookahead=50 / rc=crf / mbtree=1 / crf=18.0 / qcomp=0.60 / qpmin=0 / qpmax=69 / qpstep=4 / ip_ratio=1.40 / aq=1:1.00
Language                                 : English
Default                                  : Yes
Forced                                   : No

Audio #1
ID                                       : 2
Format                                   : DTS
Format/Info                              : Digital Theater Systems
Format profile                           : MA / Core
Codec ID                                 : A_DTS
Duration                                 : 36 min 45 s
Bit rate mode                            : Variable / Constant
Bit rate                                 : 4 117 kb/s / 1 509 kb/s
Channel(s)                               : 6 channels
Channel positions                        : Front: L C R, Side: L R, LFE
Sampling rate                            : 48.0 kHz
Frame rate                               : 93.750 FPS (512 SPF)
Bit depth                                : 24 bits
Compression mode                         : Lossless / Lossy
Stream size                              : 1.06 GiB (11%)
Title                                    : Antarctica.On.the.Edge.2014.DOCU.2160p.BluRay.x264.8bit.SDR.DTS-HD.MA.5.1-SWTYBLZ
Language                                 : English
Default                                  : Yes
Forced                                   : No

Audio #2
ID                                       : 3
Format                                   : AC-3
Format/Info                              : Audio Coding 3
Codec ID                                 : A_AC3
Duration                                 : 36 min 45 s
Bit rate mode                            : Constant
Bit rate                                 : 640 kb/s
Channel(s)                               : 6 channels
Channel positions                        : Front: L C R, Side: L R, LFE
Sampling rate                            : 48.0 kHz
Frame rate                               : 31.250 FPS (1536 SPF)
Bit depth                                : 16 bits
Compression mode                         : Lossy
Stream size                              : 168 MiB (2%)
Title                                    : Antarctica.On.the.Edge.2014.DOCU.2160p.BluRay.x264.8bit.SDR.DTS-HD.MA.5.1-SWTYBLZ
Language                                 : English
Service kind                             : Complete Main
Default                                  : No
Forced                                   : No

Text #1
ID                                       : 4
Format                                   : UTF-8
Codec ID                                 : S_TEXT/UTF8
Codec ID/Info                            : UTF-8 Plain Text
Duration                                 : 32 min 11 s
Bit rate                                 : 68 b/s
Count of elements                        : 348
Stream size                              : 16.2 KiB (0%)
Title                                    : English-SRT
Language                                 : English
Default                                  : Yes
Forced                                   : No

Text #2
ID                                       : 5
Format                                   : PGS
Muxing mode                              : zlib
Codec ID                                 : S_HDMV/PGS
Codec ID/Info                            : Picture based subtitle format used on BDs/HD-DVDs
Duration                                 : 32 min 54 s
Bit rate                                 : 42.0 kb/s
Count of elements                        : 738
Stream size                              : 9.89 MiB (0%)
Title                                    : English-PGS
Language                                 : English
Default                                  : No
Forced                                   : No

Text #3
ID                                       : 6
Format                                   : PGS
Muxing mode                              : zlib
Codec ID                                 : S_HDMV/PGS
Codec ID/Info                            : Picture based subtitle format used on BDs/HD-DVDs
Duration                                 : 35 min 35 s
Bit rate                                 : 40.1 kb/s
Count of elements                        : 726
Stream size                              : 10.2 MiB (0%)
Title                                    : French-PGS
Language                                 : French
Default                                  : No
Forced                                   : No

Text #4
ID                                       : 7
Format                                   : PGS
Muxing mode                              : zlib
Codec ID                                 : S_HDMV/PGS
Codec ID/Info                            : Picture based subtitle format used on BDs/HD-DVDs
Duration                                 : 35 min 35 s
Bit rate                                 : 35.5 kb/s
Count of elements                        : 720
Stream size                              : 9.03 MiB (0%)
Title                                    : Danish-PGS
Language                                 : Danish
Default                                  : No
Forced                                   : No

Text #5
ID                                       : 8
Format                                   : PGS
Muxing mode                              : zlib
Codec ID                                 : S_HDMV/PGS
Codec ID/Info                            : Picture based subtitle format used on BDs/HD-DVDs
Duration                                 : 35 min 35 s
Bit rate                                 : 38.8 kb/s
Count of elements                        : 724
Stream size                              : 9.87 MiB (0%)
Title                                    : Dutch-PGS
Language                                 : Dutch
Default                                  : No
Forced                                   : No

Text #6
ID                                       : 9
Format                                   : PGS
Muxing mode                              : zlib
Codec ID                                 : S_HDMV/PGS
Codec ID/Info                            : Picture based subtitle format used on BDs/HD-DVDs
Duration                                 : 35 min 35 s
Bit rate                                 : 36.7 kb/s
Count of elements                        : 722
Stream size                              : 9.33 MiB (0%)
Title                                    : Finnish-PGS
Language                                 : Finnish
Default                                  : No
Forced                                   : No

Text #7
ID                                       : 10
Format                                   : PGS
Muxing mode                              : zlib
Codec ID                                 : S_HDMV/PGS
Codec ID/Info                            : Picture based subtitle format used on BDs/HD-DVDs
Duration                                 : 35 min 35 s
Bit rate                                 : 43.7 kb/s
Count of elements                        : 746
Stream size                              : 11.1 MiB (0%)
Title                                    : German-PGS
Language                                 : German
Default                                  : No
Forced                                   : No

Text #8
ID                                       : 11
Format                                   : PGS
Muxing mode                              : zlib
Codec ID                                 : S_HDMV/PGS
Codec ID/Info                            : Picture based subtitle format used on BDs/HD-DVDs
Duration                                 : 35 min 35 s
Bit rate                                 : 36.6 kb/s
Count of elements                        : 722
Stream size                              : 9.30 MiB (0%)
Title                                    : Norwegian-PGS
Language                                 : Norwegian
Default                                  : No
Forced                                   : No

Text #9
ID                                       : 12
Format                                   : PGS
Muxing mode                              : zlib
Codec ID                                 : S_HDMV/PGS
Codec ID/Info                            : Picture based subtitle format used on BDs/HD-DVDs
Duration                                 : 35 min 35 s
Bit rate                                 : 36.9 kb/s
Count of elements                        : 720
Stream size                              : 9.38 MiB (0%)
Title                                    : Swedish-PGS
Language                                 : Swedish
Default                                  : No
Forced                                   : No

Menu
00:00:00.000                             : en:Chapter 1
00:02:31.734                             : en:Chapter 2
00:03:27.832                             : en:Chapter 3
00:05:08.308                             : en:Chapter 4
00:07:06.717                             : en:Chapter 5
00:08:50.780                             : en:Chapter 6
00:11:35.111                             : en:Chapter 7
00:13:09.205                             : en:Chapter 8
00:14:23.487                             : en:Chapter 9
00:15:53.661                             : en:Chapter 10
00:18:25.020                             : en:Chapter 11
00:19:22.786                             : en:Chapter 12
00:20:52.876                             : en:Chapter 13
00:22:28.347                             : en:Chapter 14
00:25:37.619                             : en:Chapter 15
00:27:12.047                             : en:Chapter 16
00:29:59.839                             : en:Chapter 17
00:33:41.894                             : en:Chapter 18







1 个附件 售价 大小 下载 时间

Antarctica.On.the.Edge.2014.DOCU.2160p.BluRay.x264.8bit.SDR.DTS-HD.MA.5.1-SWTYBLZ[btbtt.me].torrent 0 金币 100.64K 672 次 4天前

#1楼
发帖时间:2018-02-14 16:58:39   |   回复数:4
liyouchai
超凡入圣№
谢谢楼主分享资源
4天前 #2楼
yangbo83222179
一代宗师
谢谢楼主分享,支持一下
4天前 #3楼
thxbth
武林高手
谢楼主分享ヾ(◍°∇°◍)ノ゙
4天前 #4楼
blue23
隐世仙人♂
感谢楼主分享
3天前 #5楼
游客组