aoloffline
版主

[2017] [欧美] [喜剧] [BD-1080P] [BT下载]王尔德的婚礼 The.Wilde.Wedding.2017.1080p.BluRay.x264.DTS-HD.MA.5.1-FGT 8.7GB

-->

The.Wilde.Wedding.2017.1080p.BluRay.x264.DTS-HD.MA.5.1-FGT

◎译  名 王尔德的婚礼/婚礼搞轰趴(台)

◎片  名 The Wilde Wedding

◎年  代 2017

◎产  地 美国

◎类  别 喜剧

◎语  言 英语

◎上映日期 2017-09-15(美国)

◎IMDb评分  4.9/10 from 510 users

◎IMDb链接  http://www.imdb.com/title/tt5066056/

◎豆瓣评分 6.0/10 from 12 users

◎豆瓣链接 https://movie.douban.com/subject/26674241/

◎BT之家整理 http://www.btbtt.co 

◎片  长 95分钟

◎导  演 Damian Harris

◎主  演 格伦·克洛斯 Glenn Close

      约翰·马尔科维奇 John Malkovich

      帕特里克·斯图尔特 Patrick Stewart

      明妮·德里弗 Minnie Driver

      杰克·达文波特 Jack Davenport

      诺亚·艾默里奇 Noah Emmerich

      彼得·费辛利 Peter Facinelli

      雅艾尔·斯通 Yael Stone

      莉莉·恩格勒特 Lilly Englert

      乔·乌拉 Joe Urla

      维多利亚·盖拉 Victória Guerra

      爱德华·希伯特 Edward Hibbert


◎简  介


  A retired film star's wedding to her fourth husband brings chaos when their families (and her ex-husband) show up for the festivities.



Video
ID                                       : 1
Format                                   : AVC
Format/Info                              : Advanced Video Codec
Format profile                           : High@L4.1
Format settings                          : CABAC / 5 Ref Frames
Format settings, CABAC                   : Yes
Format settings, ReFrames                : 5 frames
Codec ID                                 : V_MPEG4/ISO/AVC
Duration                                 : 1 h 35 min
Bit rate                                 : 9 913 kb/s
Width                                    : 1 920 pixels
Height                                   : 800 pixels
Display aspect ratio                     : 2.40:1
Frame rate mode                          : Constant
Frame rate                               : 23.976 (24000/1001) FPS
Color space                              : YUV
Chroma subsampling                       : 4:2:0
Bit depth                                : 8 bits
Scan type                                : Progressive
Bits/(Pixel*Frame)                       : 0.269
Stream size                              : 6.63 GiB (75%)
Title                                    : The.Wilde.Wedding.2017.1080p.BluRay.x264.DTS-HD.MA.5.1-FGT
Writing library                          : x264 core 155 r2901 7d0ff22
Encoding settings                        : cabac=1 / ref=5 / deblock=1:0:0 / analyse=0x3:0x113 / me=umh / subme=8 / psy=1 / psy_rd=1.00:0.00 / mixed_ref=1 / me_range=16 / chroma_me=1 / trellis=1 / 8x8dct=1 / cqm=0 / deadzone=21,11 / fast_pskip=1 / chroma_qp_offset=-2 / threads=24 / lookahead_threads=4 / sliced_threads=0 / nr=0 / decimate=1 / interlaced=0 / bluray_compat=0 / constrained_intra=0 / bframes=3 / b_pyramid=2 / b_adapt=1 / b_bias=0 / direct=3 / weightb=1 / open_gop=0 / weightp=2 / keyint=240 / keyint_min=24 / scenecut=40 / intra_refresh=0 / rc_lookahead=50 / rc=2pass / mbtree=1 / bitrate=9913 / ratetol=1.0 / qcomp=0.60 / qpmin=0 / qpmax=69 / qpstep=4 / cplxblur=20.0 / qblur=0.5 / ip_ratio=1.40 / aq=1:1.00
Language                                 : English
Default                                  : Yes
Forced                                   : No

Audio
ID                                       : 2
Format                                   : DTS
Format/Info                              : Digital Theater Systems
Format profile                           : MA / Core
Codec ID                                 : A_DTS
Duration                                 : 1 h 35 min
Bit rate mode                            : Variable / Constant
Bit rate                                 : 3 072 kb/s / 1 509 kb/s
Channel(s)                               : 6 channels
Channel positions                        : Front: L C R, Side: L R, LFE
Sampling rate                            : 48.0 kHz
Frame rate                               : 93.750 FPS (512 SPF)
Bit depth                                : 24 bits
Compression mode                         : Lossless / Lossy
Stream size                              : 2.09 GiB (24%)
Title                                    : The.Wilde.Wedding.2017.1080p.BluRay.x264.DTS-HD.MA.5.1-FGT
Language                                 : English
Default                                  : Yes
Forced                                   : No

Text #1
ID                                       : 3
Format                                   : UTF-8
Codec ID                                 : S_TEXT/UTF8
Codec ID/Info                            : UTF-8 Plain Text
Duration                                 : 1 h 34 min
Bit rate                                 : 57 b/s
Count of elements                        : 1123
Stream size                              : 40.3 KiB (0%)
Title                                    : English-SRT
Language                                 : English
Default                                  : Yes
Forced                                   : No

Text #2
ID                                       : 4
Format                                   : UTF-8
Codec ID                                 : S_TEXT/UTF8
Codec ID/Info                            : UTF-8 Plain Text
Duration                                 : 1 h 34 min
Bit rate                                 : 68 b/s
Count of elements                        : 1314
Stream size                              : 47.5 KiB (0%)
Title                                    : English-SDH-SRT
Language                                 : English
Default                                  : No
Forced                                   : No

Text #3
ID                                       : 5
Format                                   : PGS
Muxing mode                              : zlib
Codec ID                                 : S_HDMV/PGS
Codec ID/Info                            : Picture based subtitle format used on BDs/HD-DVDs
Duration                                 : 1 h 34 min
Bit rate                                 : 49.1 kb/s
Count of elements                        : 2628
Stream size                              : 33.3 MiB (0%)
Title                                    : English-PGS
Language                                 : English
Default                                  : No
Forced                                   : No

Text #4
ID                                       : 6
Format                                   : PGS
Muxing mode                              : zlib
Codec ID                                 : S_HDMV/PGS
Codec ID/Info                            : Picture based subtitle format used on BDs/HD-DVDs
Duration                                 : 1 h 34 min
Bit rate                                 : 42.0 kb/s
Count of elements                        : 2252
Stream size                              : 28.5 MiB (0%)
Title                                    : French-PGS
Language                                 : French
Default                                  : No
Forced                                   : No

Text #5
ID                                       : 7
Format                                   : PGS
Muxing mode                              : zlib
Codec ID                                 : S_HDMV/PGS
Codec ID/Info                            : Picture based subtitle format used on BDs/HD-DVDs
Duration                                 : 1 h 34 min
Bit rate                                 : 39.8 kb/s
Count of elements                        : 2146
Stream size                              : 27.0 MiB (0%)
Title                                    : Italian-PGS
Language                                 : Italian
Default                                  : No
Forced                                   : No

Text #6
ID                                       : 8
Format                                   : PGS
Muxing mode                              : zlib
Codec ID                                 : S_HDMV/PGS
Codec ID/Info                            : Picture based subtitle format used on BDs/HD-DVDs
Duration                                 : 1 h 34 min
Bit rate                                 : 38.3 kb/s
Count of elements                        : 2222
Stream size                              : 26.0 MiB (0%)
Title                                    : Danish-PGS
Language                                 : Danish
Default                                  : No
Forced                                   : No

Text #7
ID                                       : 9
Format                                   : PGS
Muxing mode                              : zlib
Codec ID                                 : S_HDMV/PGS
Codec ID/Info                            : Picture based subtitle format used on BDs/HD-DVDs
Duration                                 : 1 h 34 min
Bit rate                                 : 36.2 kb/s
Count of elements                        : 2186
Stream size                              : 24.6 MiB (0%)
Title                                    : Finnish-PGS
Language                                 : Finnish
Default                                  : No
Forced                                   : No

Text #8
ID                                       : 10
Format                                   : PGS
Muxing mode                              : zlib
Codec ID                                 : S_HDMV/PGS
Codec ID/Info                            : Picture based subtitle format used on BDs/HD-DVDs
Duration                                 : 1 h 34 min
Bit rate                                 : 37.8 kb/s
Count of elements                        : 2252
Stream size                              : 25.7 MiB (0%)
Title                                    : Norwegian-PGS
Language                                 : Norwegian
Default                                  : No
Forced                                   : No

Text #9
ID                                       : 11
Format                                   : PGS
Muxing mode                              : zlib
Codec ID                                 : S_HDMV/PGS
Codec ID/Info                            : Picture based subtitle format used on BDs/HD-DVDs
Duration                                 : 1 h 34 min
Bit rate                                 : 36.0 kb/s
Count of elements                        : 2248
Stream size                              : 24.4 MiB (0%)
Title                                    : Swedish-PGS
Language                                 : Swedish
Default                                  : No
Forced                                   : No

Text #10
ID                                       : 12
Format                                   : PGS
Muxing mode                              : zlib
Codec ID                                 : S_HDMV/PGS
Codec ID/Info                            : Picture based subtitle format used on BDs/HD-DVDs
Duration                                 : 1 h 16 min
Bit rate                                 : 1 127 b/s
Count of elements                        : 52
Stream size                              : 636 KiB (0%)
Title                                    : English-FORCED-PGS
Language                                 : English
Default                                  : No
Forced                                   : No

Menu
00:00:00.000                             : en:00:00:00.000
00:08:24.170                             : en:00:08:24.170
00:15:32.974                             : en:00:15:32.974
00:23:25.154                             : en:00:23:25.154
00:33:13.825                             : en:00:33:13.825
00:39:13.476                             : en:00:39:13.476
00:50:37.701                             : en:00:50:37.701
00:57:00.459                             : en:00:57:00.459
01:04:04.507                             : en:01:04:04.507
01:10:44.991                             : en:01:10:44.991
01:21:40.312                             : en:01:21:40.312
01:26:39.528                             : en:01:26:39.528





1 个附件 售价 大小 下载 时间

The.Wilde.Wedding.2017.1080p.BluRay.x264.DTS-HD.MA.5.1-FGT[btbtt.me].torrent 0 金币 88.41K 399 次 4天前

#1楼
发帖时间:2018-02-14 16:57:05   |   回复数:2
liyouchai
超凡入圣№
谢谢楼主分享资源
4天前 #2楼
blue23
隐世仙人♂
感谢楼主分享
3天前 #3楼
游客组