aoloffline
版主

[2017] [欧美] [剧情] [BD-1080P] [BT下载]佛罗里达乐园 The.Florida.Project.2017.1080p.BluRay.x264.DTS-HD.MA.5.1-FGT 10GB

-->

The.Florida.Project.2017.1080p.BluRay.x264.DTS-HD.MA.5.1-FGT

◎译  名 佛罗里达乐园/迪士尼的夏天(台)

◎片  名 The Florida Project

◎年  代 2017

◎产  地 美国

◎类  别 剧情/儿童

◎语  言 英语

◎上映日期 2017-05-22(戛纳电影节)/2017-10-06(美国)

◎豆瓣评分 8.0/10 from 9,582 users

◎豆瓣链接 https://movie.douban.com/subject/26778790/

◎BT之家整理 http://www.btbtt.co

◎片  长 111分钟

◎导  演 肖恩·贝克 Sean Baker

◎主  演 布鲁克琳·普林斯 Brooklynn Prince

      布丽娅·维纳特 Bria Vinaite

      威廉·达福 Willem Dafoe

      克里斯托弗·里维拉 Christopher Rivera

      梅拉·穆德 Mela Murder

      瓦莱丽亚·科托 Valeria Cotto

      乔希·奥利沃 Josie Olivo

      艾登·马利克 Aiden Malik

      爱德华·帕根 Edward Pagan

      卡赖伯·兰德里·琼斯 Caleb Landry Jones

      克里斯托·尼科尔·沃茨 Krystal Nicole Watts

      桑迪·凯恩 Sandy Kane

      吉姆·R·科曼 Jim R. Coleman

      安德鲁·罗马诺 Andrew Romano

      卡罗丽娜·格拉波瓦 Carolina Grabova

      特里·艾伦·琼斯 Terry Allen Jones

      卡伦·卡拉古利安 Karren Karagulian

      邹时擎 Shih-Ching Tsou

      祖普·卡塔纳 Joop Katana

      梅肯·布莱尔 Macon Blair

      卡尔·布拉德菲尔德 Carl Bradfield


◎简  介


  影片讲述了一个早熟的六岁女孩Moonee和她的朋友们的故事,Moonee和她的年轻妈妈Halley住在奥兰多一个廉价的社区汽车旅馆里,过着艰难的生活,在暑假里,Moonee和她的朋友们展开了一系列冒险。


Video
ID                                       : 1
Format                                   : AVC
Format/Info                              : Advanced Video Codec
Format profile                           : High@L4.1
Format settings                          : CABAC / 5 Ref Frames
Format settings, CABAC                   : Yes
Format settings, ReFrames                : 5 frames
Codec ID                                 : V_MPEG4/ISO/AVC
Duration                                 : 1 h 51 min
Bit rate                                 : 9 702 kb/s
Width                                    : 1 920 pixels
Height                                   : 808 pixels
Display aspect ratio                     : 2.40:1
Frame rate mode                          : Constant
Frame rate                               : 23.976 (24000/1001) FPS
Color space                              : YUV
Chroma subsampling                       : 4:2:0
Bit depth                                : 8 bits
Scan type                                : Progressive
Bits/(Pixel*Frame)                       : 0.261
Stream size                              : 7.56 GiB (75%)
Title                                    : The.Florida.Project.2017.1080p.BluRay.x264.DTS-HD.MA.5.1-FGT
Writing library                          : x264 core 155 r2901 7d0ff22
Encoding settings                        : cabac=1 / ref=5 / deblock=1:0:0 / analyse=0x3:0x113 / me=umh / subme=8 / psy=1 / psy_rd=1.00:0.00 / mixed_ref=1 / me_range=16 / chroma_me=1 / trellis=1 / 8x8dct=1 / cqm=0 / deadzone=21,11 / fast_pskip=1 / chroma_qp_offset=-2 / threads=24 / lookahead_threads=4 / sliced_threads=0 / nr=0 / decimate=1 / interlaced=0 / bluray_compat=0 / constrained_intra=0 / bframes=3 / b_pyramid=2 / b_adapt=1 / b_bias=0 / direct=3 / weightb=1 / open_gop=0 / weightp=2 / keyint=240 / keyint_min=24 / scenecut=40 / intra_refresh=0 / rc_lookahead=50 / rc=2pass / mbtree=1 / bitrate=9702 / ratetol=1.0 / qcomp=0.60 / qpmin=0 / qpmax=69 / qpstep=4 / cplxblur=20.0 / qblur=0.5 / ip_ratio=1.40 / aq=1:1.00
Language                                 : English
Default                                  : Yes
Forced                                   : No

Audio
ID                                       : 2
Format                                   : DTS
Format/Info                              : Digital Theater Systems
Format profile                           : MA / Core
Codec ID                                 : A_DTS
Duration                                 : 1 h 51 min
Bit rate mode                            : Variable / Constant
Bit rate                                 : 3 219 kb/s / 1 509 kb/s
Channel(s)                               : 6 channels
Channel positions                        : Front: L C R, Side: L R, LFE
Sampling rate                            : 48.0 kHz
Frame rate                               : 93.750 FPS (512 SPF)
Bit depth                                : 24 bits
Compression mode                         : Lossless / Lossy
Stream size                              : 2.51 GiB (25%)
Title                                    : The.Florida.Project.2017.1080p.BluRay.x264.DTS-HD.MA.5.1-FGT
Language                                 : English
Default                                  : Yes
Forced                                   : No

Text #1
ID                                       : 3
Format                                   : UTF-8
Codec ID                                 : S_TEXT/UTF8
Codec ID/Info                            : UTF-8 Plain Text
Duration                                 : 1 h 46 min
Bit rate                                 : 65 b/s
Count of elements                        : 1511
Stream size                              : 50.9 KiB (0%)
Title                                    : English-SRT
Language                                 : English
Default                                  : Yes
Forced                                   : No

Text #2
ID                                       : 4
Format                                   : UTF-8
Codec ID                                 : S_TEXT/UTF8
Codec ID/Info                            : UTF-8 Plain Text
Duration                                 : 1 h 50 min
Bit rate                                 : 74 b/s
Count of elements                        : 1755
Stream size                              : 60.3 KiB (0%)
Title                                    : English-SDH-SRT
Language                                 : English
Default                                  : No
Forced                                   : No

Text #3
ID                                       : 5
Format                                   : PGS
Muxing mode                              : zlib
Codec ID                                 : S_HDMV/PGS
Codec ID/Info                            : Picture based subtitle format used on BDs/HD-DVDs
Duration                                 : 1 h 50 min
Bit rate                                 : 51.9 kb/s
Count of elements                        : 3522
Stream size                              : 41.1 MiB (0%)
Title                                    : English-PGS
Language                                 : English
Default                                  : No
Forced                                   : No

Text #4
ID                                       : 6
Format                                   : PGS
Muxing mode                              : zlib
Codec ID                                 : S_HDMV/PGS
Codec ID/Info                            : Picture based subtitle format used on BDs/HD-DVDs
Duration                                 : 1 h 46 min
Bit rate                                 : 42.3 kb/s
Count of elements                        : 2946
Stream size                              : 32.4 MiB (0%)
Title                                    : Spanish-PGS
Language                                 : Spanish
Default                                  : No
Forced                                   : No

Text #5
ID                                       : 7
Format                                   : PGS
Muxing mode                              : zlib
Codec ID                                 : S_HDMV/PGS
Codec ID/Info                            : Picture based subtitle format used on BDs/HD-DVDs
Duration                                 : 1 h 3 min
Bit rate                                 : 844 b/s
Count of elements                        : 50
Stream size                              : 392 KiB (0%)
Title                                    : English-FORCED-PGS
Language                                 : English
Default                                  : No
Forced                                   : No

Menu
00:00:00.000                             : en:Chapter 01
00:07:16.686                             : en:Chapter 02
00:13:02.656                             : en:Chapter 03
00:21:22.531                             : en:Chapter 04
00:25:16.389                             : en:Chapter 05
00:32:04.005                             : en:Chapter 06
00:38:48.868                             : en:Chapter 07
00:44:28.207                             : en:Chapter 08
00:51:27.542                             : en:Chapter 09
00:56:41.648                             : en:Chapter 10
01:04:28.698                             : en:Chapter 11
01:11:19.108                             : en:Chapter 12
01:19:07.451                             : en:Chapter 13
01:28:33.224                             : en:Chapter 14
01:36:10.931                             : en:Chapter 15
01:44:52.411                             : en:Chapter 16





1 个附件 售价 大小 下载 时间

The.Florida.Project.2017.1080p.BluRay.x264.DTS-HD.MA.5.1-FGT[btbtt.me].torrent 0 金币 51.09K 742 次 4天前

#1楼
发帖时间:2018-02-14 16:53:12   |   回复数:2
liyouchai
超凡入圣№
谢谢楼主分享资源
4天前 #2楼
blue23
隐世仙人♂
感谢楼主分享
3天前 #3楼
游客组