aoloffline
版主

[2017] [欧美] [喜剧] [BD-Remux] [BT下载]Fixed.2017.1080p.BluRay.REMUX.AVC.DTS-HD.MA.5.1-FGT 20GB

-->

Fixed.2017.1080p.BluRay.REMUX.AVC.DTS-HD.MA.5.1-FGT

◎译  名 

◎片  名 Fixed

◎年  代 2017

◎产  地 美国

◎类  别 喜剧

◎语  言 英语

◎BT之家整理 http://www.btbtt.co

◎片  长 93分钟

◎导  演 Alonso Mayo

◎主  演 阿兰·卢克 Alan Ruck

      埃瑞恩·海耶斯 Erinn Hayes

      Jacqui Holland


◎简  介


  Allan is a married father of three whose sex life takes another hit when his wife can no longer take the pill. He soon finds himself with an appointment for avasectomy and a nagging identity crisis. Although he is by all reasonable accounts a good| responsible man| the thought of getting "fixed" drives him to lose himselfto an action-packed midlife crisis along with his best friends. Allan will refuse to grow up anymore.


Video
ID                                       : 1
Format                                   : AVC
Format/Info                              : Advanced Video Codec
Format profile                           : High@L4.1
Format settings                          : CABAC / 4 Ref Frames
Format settings, CABAC                   : Yes
Format settings, ReFrames                : 4 frames
Codec ID                                 : V_MPEG4/ISO/AVC
Duration                                 : 1 h 31 min
Bit rate mode                            : Variable
Bit rate                                 : 26.9 Mb/s
Maximum bit rate                         : 38.0 Mb/s
Width                                    : 1 920 pixels
Height                                   : 1 080 pixels
Display aspect ratio                     : 16:9
Frame rate mode                          : Constant
Frame rate                               : 23.976 (24000/1001) FPS
Color space                              : YUV
Chroma subsampling                       : 4:2:0
Bit depth                                : 8 bits
Scan type                                : Progressive
Bits/(Pixel*Frame)                       : 0.541
Stream size                              : 17.2 GiB (85%)
Title                                    : Fixed.2017.1080p.BluRay.REMUX.AVC.DTS-HD.MA.5.1-FGT
Language                                 : English
Default                                  : No
Forced                                   : No

Audio #1
ID                                       : 2
Format                                   : DTS
Format/Info                              : Digital Theater Systems
Format profile                           : MA / Core
Codec ID                                 : A_DTS
Duration                                 : 1 h 31 min
Bit rate mode                            : Variable / Constant
Bit rate                                 : 3 250 kb/s / 1 509 kb/s
Channel(s)                               : 6 channels
Channel positions                        : Front: L C R, Side: L R, LFE
Sampling rate                            : 48.0 kHz
Frame rate                               : 93.750 FPS (512 SPF)
Bit depth                                : 24 bits
Compression mode                         : Lossless / Lossy
Stream size                              : 2.08 GiB (10%)
Title                                    : Fixed.2017.1080p.BluRay.REMUX.AVC.DTS-HD.MA.5.1-FGT
Language                                 : English
Default                                  : Yes
Forced                                   : No

Audio #2
ID                                       : 3
Format                                   : DTS
Format/Info                              : Digital Theater Systems
Codec ID                                 : A_DTS
Duration                                 : 1 h 31 min
Bit rate mode                            : Constant
Bit rate                                 : 1 509 kb/s
Channel(s)                               : 6 channels
Channel positions                        : Front: L C R, Side: L R, LFE
Sampling rate                            : 48.0 kHz
Frame rate                               : 93.750 FPS (512 SPF)
Bit depth                                : 24 bits
Compression mode                         : Lossy
Stream size                              : 990 MiB (5%)
Title                                    : Fixed.2017.1080p.BluRay.REMUX.AVC.DTS-HD.MA.5.1-FGT
Language                                 : English
Default                                  : No
Forced                                   : No

Text
ID                                       : 4
Format                                   : PGS
Muxing mode                              : zlib
Codec ID                                 : S_HDMV/PGS
Codec ID/Info                            : Picture based subtitle format used on BDs/HD-DVDs
Duration                                 : 1 h 31 min
Bit rate                                 : 172 kb/s
Count of elements                        : 5208
Stream size                              : 113 MiB (1%)
Title                                    : English-PGS
Language                                 : English
Default                                  : Yes
Forced                                   : No

Menu
00:00:00.000                             : en:Chapter 01
00:07:13.599                             : en:Chapter 02
00:16:21.480                             : en:Chapter 03
00:24:21.460                             : en:Chapter 04
00:35:40.596                             : en:Chapter 05
00:47:36.103                             : en:Chapter 06
00:58:32.509                             : en:Chapter 07
01:11:14.353                             : en:Chapter 08
01:21:27.883                             : en:Chapter 09
01:31:44.665                             : en:Chapter 10





1 个附件 售价 大小 下载 时间

Fixed.2017.1080p.BluRay.REMUX.AVC.DTS-HD.MA.5.1-FGT[btbtt.me].torrent 0 金币 51.44K 399 次 3月前

#1楼
发帖时间:2018-02-14 16:49:47   |   回复数:3
liyouchai
超凡入圣№
谢谢楼主分享资源
3月前 #2楼
blue23
隐世仙人♂
感谢楼主分享
3月前 #3楼
911degrees
超凡入圣№
非常感谢,谢谢分享
3月前 #4楼
游客组