aoloffline
版主

[2017] [欧美] [动画] [BD-Remux] [BT下载]寻梦环游记 Coco.2017.1080p.BluRay.REMUX.AVC.DTS-HD.MA.7.1-FGT 26GB

-->

Coco.2017.1080p.BluRay.REMUX.AVC.DTS-HD.MA.7.1-FGT

◎译  名 寻梦环游记/可可夜总会(台)/玩转极乐园(港)/亡灵总动员(豆友译名)/祖宗总动员(豆友译名)/墨西哥亡灵节/可可

◎片  名 Coco

◎年  代 2017

◎产  地 美国

◎类  别 喜剧/动画/冒险/音乐/家庭

◎语  言 英语/西班牙语

◎上映日期 2017-10-20(莫雷利亚电影节)/2017-11-22(美国)/2017-11-24(中国大陆)

◎IMDb评分  8.7/10 from 74,086 users

◎IMDb链接  http://www.imdb.com/title/tt2380307/

◎豆瓣评分 9.1/10 from 373,952 users

◎豆瓣链接 https://movie.douban.com/subject/20495023/

◎BT之家整理 http://www.btbtt.co

◎片  长 105分钟

◎导  演 李·昂克里奇 Lee Unkrich / 阿德里安·莫利纳 Adrian Molina

◎主  演 安东尼·冈萨雷斯 Anthony Gonzalez

      盖尔·加西亚·贝纳尔 Gael García Bernal

      本杰明·布拉特 Benjamin Bratt

      阿兰纳·乌巴奇 Alanna Ubach

      芮妮·维克托 Renée Victor

      杰米·卡米尔 Jaime Camil

      阿方索·阿雷奥 Alfonso Arau

      赫伯特·西古恩萨 Herbert Siguenza

      加布里埃尔·伊格莱西亚斯 Gabriel Iglesias

      隆巴多·博伊尔 Lombardo Boyar

      安娜·奥菲丽亚·莫吉亚 Ana Ofelia Murguía

      娜塔丽·科尔多瓦 Natalia Cordova

      赛琳娜·露娜 Selene Luna

      爱德华·詹姆斯·奥莫斯 Edward James Olmos

      索菲亚·伊斯皮诺萨 Sofía Espinosa

      卡拉·梅迪纳 Carla Medina

      黛娅娜·欧特里 Dyana Ortelli

      路易斯·瓦尔德斯 Luis Valdez

      布兰卡·阿拉切利 Blanca Araceli

      萨尔瓦多·雷耶斯 Salvador Reyes

      切奇·马林 Cheech Marin

      奥克塔维·索利斯 Octavio Solis

      约翰·拉岑贝格 John Ratzenberger


◎简  介


  热爱音乐的米格尔(安东尼·冈萨雷兹 Anthony Gonzalez 配音)不幸地出生在一个视音乐为洪水猛兽的大家庭之中,一家人只盼着米格尔快快长大,好继承家里传承了数代的制鞋产业。一年一度的亡灵节即将来临,每逢这一天,去世的亲人们的魂魄便可凭借着摆在祭坛上的照片返回现世和生者团圆。

  在一场意外中,米格尔竟然穿越到了亡灵国度之中,在太阳升起之前,他必须得到一位亲人的祝福,否则就将会永远地留在这个世界里。米格尔决定去寻找已故的歌神德拉库斯(本杰明·布拉特 Benjamin Bratt 配音),因为他很有可能就是自己的祖父。途中,米格尔邂逅了落魄乐手埃克托(盖尔·加西亚·贝纳尔 Gael García Bernal 配音),也渐渐发现了德拉库斯隐藏已久的秘密。


◎获奖情况


  第90届奥斯卡金像奖  (2018)

  最佳动画长片(提名) 达拉·K·安德森 / 李·昂克里奇

  最佳原创歌曲(提名) 克里斯汀·安德森·洛佩兹 / 罗伯特·洛佩兹


  第75届金球奖  (2018)

  电影类 最佳动画长片

  电影类 最佳原创歌曲(提名)


  第71届英国电影学院奖  (2018)

  电影奖 最佳动画片(提名)


  第45届动画安妮奖  (2018)

  最佳动画长片(提名)

  最佳导演(提名) 阿德里安·莫利纳 / 李·昂克里奇

  最佳编剧(提名) 阿德里安·莫利纳 / 马修·奥尔德里奇

  最佳配音(提名) 安东尼·冈萨雷斯

  最佳配乐(提名) 迈克·吉亚奇诺

  最佳分镜(提名) 迪恩·凯利 / 玛德琳·莎拉芬

  最佳艺术指导(提名) 哈雷·杰斯普 / Bryn Imagire

  最佳角色设计(提名) 克雷格·但科斯塔

  最佳剪辑(提名) Greg Snyder / 史蒂夫·布卢姆 / 李·昂克里奇

  最佳动画效果(提名)

  最佳动画角色(提名) 艾莉森·拉特兰德 / 约翰·春·赵·李


  第29届美国制片人工会奖  (2018)

  最佳动画片制片人奖


  第68届美国剪辑工会奖  (2018)

  动画片最佳剪辑 史蒂夫·布卢姆


  第22届美国艺术指导工会奖  (2018)

  电影奖 最佳动画电影艺术指导


  第16届美国视觉效果协会奖  (2018)

  最佳动画电影视觉效果(提名)

  最佳动画电影CG动画角色(提名)

  最佳动画电影CG背景(提名)

  最佳动画电影模拟动画效果(提名)


  第54届美国声音效果协会奖  (2018)

  动画电影最佳音效(提名)


  第83届纽约影评人协会奖  (2017)

  最佳动画片


  第89届美国国家评论协会奖  (2017)

  最佳动画片 阿德里安·莫利纳 / 李·昂克里奇


  第23届美国评论家选择电影奖  (2018)

  最佳动画片

  最佳歌曲


  第22届金卫星奖  (2018)

  电影部门 最佳动画片(提名)

  电影部门 最佳音效(提名)


  第16届华盛顿影评人协会奖  (2017)

  最佳动画片

  最佳配音 安东尼·冈萨雷斯


  第38届波士顿影评人协会奖  (2017)

  最佳动画片


  第4届豆瓣电影年度榜单  (2017)

  最受关注的院线电影(提名)

  评分最高的动画片

  年度电影原声(提名)

  11月最受关注电影



Video
ID                                       : 1
Format                                   : AVC
Format/Info                              : Advanced Video Codec
Format profile                           : High@L4.1
Format settings                          : CABAC / 4 Ref Frames
Format settings, CABAC                   : Yes
Format settings, ReFrames                : 4 frames
Format settings, GOP                     : M=1, N=12
Codec ID                                 : V_MPEG4/ISO/AVC
Duration                                 : 1 h 45 min
Bit rate mode                            : Variable
Bit rate                                 : 24.1 Mb/s
Maximum bit rate                         : 32.0 Mb/s
Width                                    : 1 920 pixels
Height                                   : 1 080 pixels
Display aspect ratio                     : 16:9
Frame rate mode                          : Constant
Frame rate                               : 23.976 (24000/1001) FPS
Color space                              : YUV
Chroma subsampling                       : 4:2:0
Bit depth                                : 8 bits
Scan type                                : Progressive
Bits/(Pixel*Frame)                       : 0.484
Stream size                              : 17.7 GiB (67%)
Title                                    : Coco.2017.1080p.BluRay.REMUX.AVC.DTS-HD.MA.7.1-FGT
Language                                 : English
Default                                  : No
Forced                                   : No

Audio #1
ID                                       : 2
Format                                   : DTS
Format/Info                              : Digital Theater Systems
Format profile                           : MA / Core
Codec ID                                 : A_DTS
Duration                                 : 1 h 45 min
Bit rate mode                            : Variable / Constant
Bit rate                                 : 4 478 kb/s / 1 509 kb/s
Channel(s)                               : 8 channels / 6 channels
Channel positions                        : Front: L C R, Side: L R, Back: L R, LFE / Front: L C R, Side: L R, LFE
Sampling rate                            : 48.0 kHz
Frame rate                               : 93.750 FPS (512 SPF)
Bit depth                                : 24 bits
Compression mode                         : Lossless / Lossy
Stream size                              : 3.29 GiB (12%)
Title                                    : Coco.2017.1080p.BluRay.REMUX.AVC.DTS-HD.MA.7.1-FGT
Language                                 : English
Default                                  : Yes
Forced                                   : No

Audio #2
ID                                       : 3
Format                                   : DTS
Format/Info                              : Digital Theater Systems
Codec ID                                 : A_DTS
Duration                                 : 1 h 45 min
Bit rate mode                            : Constant
Bit rate                                 : 1 509 kb/s
Channel(s)                               : 6 channels
Channel positions                        : Front: L C R, Side: L R, LFE
Sampling rate                            : 48.0 kHz
Frame rate                               : 93.750 FPS (512 SPF)
Bit depth                                : 24 bits
Compression mode                         : Lossy
Stream size                              : 1.11 GiB (4%)
Title                                    : Coco.2017.1080p.BluRay.REMUX.AVC.DTS-HD.MA.7.1-FGT
Language                                 : English
Default                                  : No
Forced                                   : No

Audio #3
ID                                       : 4
Format                                   : DTS
Format/Info                              : Digital Theater Systems
Format profile                           : HRA / Core
Codec ID                                 : A_DTS
Duration                                 : 1 h 45 min
Bit rate mode                            : Constant
Bit rate                                 : 2 046 kb/s / 1 509 kb/s
Channel(s)                               : 6 channels
Channel positions                        : Front: L C R, Side: L R, LFE
Sampling rate                            : 48.0 kHz
Frame rate                               : 93.750 FPS (512 SPF)
Bit depth                                : 24 bits
Compression mode                         : Lossy
Stream size                              : 1.50 GiB (6%)
Title                                    : Coco.2017.1080p.BluRay.REMUX.AVC.DTS-HD.MA.7.1-FGT
Language                                 : English
Default                                  : No
Forced                                   : No

Audio #4
ID                                       : 5
Format                                   : DTS
Format/Info                              : Digital Theater Systems
Codec ID                                 : A_DTS
Duration                                 : 1 h 45 min
Bit rate mode                            : Constant
Bit rate                                 : 1 509 kb/s
Channel(s)                               : 6 channels
Channel positions                        : Front: L C R, Side: L R, LFE
Sampling rate                            : 48.0 kHz
Frame rate                               : 93.750 FPS (512 SPF)
Bit depth                                : 24 bits
Compression mode                         : Lossy
Stream size                              : 1.11 GiB (4%)
Title                                    : Coco.2017.1080p.BluRay.REMUX.AVC.DTS-HD.MA.7.1-FGT
Language                                 : English
Default                                  : No
Forced                                   : No

Audio #5
ID                                       : 6
Format                                   : AC-3
Format/Info                              : Audio Coding 3
Codec ID                                 : A_AC3
Duration                                 : 1 h 45 min
Bit rate mode                            : Constant
Bit rate                                 : 320 kb/s
Channel(s)                               : 2 channels
Channel positions                        : Front: L R
Sampling rate                            : 48.0 kHz
Frame rate                               : 31.250 FPS (1536 SPF)
Bit depth                                : 16 bits
Compression mode                         : Lossy
Stream size                              : 240 MiB (1%)
Title                                    : Coco.2017.1080p.BluRay.REMUX.AVC.DTS-HD.MA.7.1-FGT
Language                                 : English
Service kind                             : Complete Main
Default                                  : No
Forced                                   : No

Audio #6
ID                                       : 7
Format                                   : AC-3
Format/Info                              : Audio Coding 3
Codec ID                                 : A_AC3
Duration                                 : 1 h 45 min
Bit rate mode                            : Constant
Bit rate                                 : 320 kb/s
Channel(s)                               : 2 channels
Channel positions                        : Front: L R
Sampling rate                            : 48.0 kHz
Frame rate                               : 31.250 FPS (1536 SPF)
Bit depth                                : 16 bits
Compression mode                         : Lossy
Stream size                              : 240 MiB (1%)
Title                                    : Coco.2017.1080p.BluRay.REMUX.AVC.DTS-HD.MA.7.1-FGT
Language                                 : English
Service kind                             : Complete Main
Default                                  : No
Forced                                   : No

Audio #7
ID                                       : 8
Format                                   : AC-3
Format/Info                              : Audio Coding 3
Codec ID                                 : A_AC3
Duration                                 : 1 h 45 min
Bit rate mode                            : Constant
Bit rate                                 : 640 kb/s
Channel(s)                               : 6 channels
Channel positions                        : Front: L C R, Side: L R, LFE
Sampling rate                            : 48.0 kHz
Frame rate                               : 31.250 FPS (1536 SPF)
Bit depth                                : 16 bits
Compression mode                         : Lossy
Stream size                              : 481 MiB (2%)
Title                                    : Coco.2017.1080p.BluRay.REMUX.AVC.DTS-HD.MA.7.1-FGT
Language                                 : French
Service kind                             : Complete Main
Default                                  : No
Forced                                   : No

Audio #8
ID                                       : 9
Format                                   : AC-3
Format/Info                              : Audio Coding 3
Codec ID                                 : A_AC3
Duration                                 : 1 h 45 min
Bit rate mode                            : Constant
Bit rate                                 : 640 kb/s
Channel(s)                               : 6 channels
Channel positions                        : Front: L C R, Side: L R, LFE
Sampling rate                            : 48.0 kHz
Frame rate                               : 31.250 FPS (1536 SPF)
Bit depth                                : 16 bits
Compression mode                         : Lossy
Stream size                              : 481 MiB (2%)
Title                                    : Coco.2017.1080p.BluRay.REMUX.AVC.DTS-HD.MA.7.1-FGT
Language                                 : Spanish
Service kind                             : Complete Main
Default                                  : No
Forced                                   : No

Audio #9
ID                                       : 10
Format                                   : AC-3
Format/Info                              : Audio Coding 3
Codec ID                                 : A_AC3
Duration                                 : 1 h 45 min
Bit rate mode                            : Constant
Bit rate                                 : 320 kb/s
Channel(s)                               : 2 channels
Channel positions                        : Front: L R
Sampling rate                            : 48.0 kHz
Frame rate                               : 31.250 FPS (1536 SPF)
Bit depth                                : 16 bits
Compression mode                         : Lossy
Stream size                              : 240 MiB (1%)
Title                                    : Coco.2017.1080p.BluRay.REMUX.AVC.DTS-HD.MA.7.1-FGT
Language                                 : English
Service kind                             : Complete Main
Default                                  : No
Forced                                   : No

Text #1
ID                                       : 11
Format                                   : PGS
Muxing mode                              : zlib
Codec ID                                 : S_HDMV/PGS
Codec ID/Info                            : Picture based subtitle format used on BDs/HD-DVDs
Duration                                 : 1 h 44 min
Bit rate                                 : 45.3 kb/s
Count of elements                        : 3426
Stream size                              : 33.8 MiB (0%)
Title                                    : English-PGS
Language                                 : English
Default                                  : Yes
Forced                                   : No

Text #2
ID                                       : 12
Format                                   : PGS
Muxing mode                              : zlib
Codec ID                                 : S_HDMV/PGS
Codec ID/Info                            : Picture based subtitle format used on BDs/HD-DVDs
Duration                                 : 1 h 44 min
Bit rate                                 : 37.0 kb/s
Count of elements                        : 2344
Stream size                              : 27.6 MiB (0%)
Title                                    : English-SDH-PGS
Language                                 : English
Default                                  : No
Forced                                   : No

Text #3
ID                                       : 13
Format                                   : PGS
Muxing mode                              : zlib
Codec ID                                 : S_HDMV/PGS
Codec ID/Info                            : Picture based subtitle format used on BDs/HD-DVDs
Duration                                 : 1 h 44 min
Bit rate                                 : 37.3 kb/s
Count of elements                        : 2366
Stream size                              : 27.8 MiB (0%)
Title                                    : French-PGS
Language                                 : French
Default                                  : No
Forced                                   : No

Text #4
ID                                       : 14
Format                                   : PGS
Muxing mode                              : zlib
Codec ID                                 : S_HDMV/PGS
Codec ID/Info                            : Picture based subtitle format used on BDs/HD-DVDs
Duration                                 : 1 h 44 min
Bit rate                                 : 35.3 kb/s
Count of elements                        : 2242
Stream size                              : 26.3 MiB (0%)
Title                                    : Spanish-PGS
Language                                 : Spanish
Default                                  : No
Forced                                   : No

Text #5
ID                                       : 15
Format                                   : PGS
Muxing mode                              : zlib
Codec ID                                 : S_HDMV/PGS
Codec ID/Info                            : Picture based subtitle format used on BDs/HD-DVDs
Duration                                 : 1 h 44 min
Bit rate                                 : 78.2 kb/s
Count of elements                        : 3914
Stream size                              : 58.3 MiB (0%)
Title                                    : English-COMMENTARY-PGS
Language                                 : English
Default                                  : No
Forced                                   : No

Text #6
ID                                       : 16
Format                                   : PGS
Muxing mode                              : zlib
Codec ID                                 : S_HDMV/PGS
Codec ID/Info                            : Picture based subtitle format used on BDs/HD-DVDs
Duration                                 : 1 h 44 min
Bit rate                                 : 73.5 kb/s
Count of elements                        : 3768
Stream size                              : 54.8 MiB (0%)
Title                                    : English-COMMENTARY-PGS
Language                                 : English
Default                                  : No
Forced                                   : No

Text #7
ID                                       : 17
Format                                   : PGS
Muxing mode                              : zlib
Codec ID                                 : S_HDMV/PGS
Codec ID/Info                            : Picture based subtitle format used on BDs/HD-DVDs
Duration                                 : 1 h 44 min
Bit rate                                 : 61.3 kb/s
Count of elements                        : 3768
Stream size                              : 45.7 MiB (0%)
Title                                    : French-COMMENTARY-PGS
Language                                 : French
Default                                  : No
Forced                                   : No

Text #8
ID                                       : 18
Format                                   : PGS
Muxing mode                              : zlib
Codec ID                                 : S_HDMV/PGS
Codec ID/Info                            : Picture based subtitle format used on BDs/HD-DVDs
Duration                                 : 1 h 44 min
Bit rate                                 : 64.4 kb/s
Count of elements                        : 3768
Stream size                              : 48.0 MiB (0%)
Title                                    : Spanish-COMMENTARY-PGS
Language                                 : Spanish
Default                                  : No
Forced                                   : No

Menu
00:00:00.000                             : en:Chapter 01
00:06:40.191                             : en:Chapter 02
00:08:41.521                             : en:Chapter 03
00:11:13.589                             : en:Chapter 04
00:14:20.317                             : en:Chapter 05
00:17:06.942                             : en:Chapter 06
00:18:20.933                             : en:Chapter 07
00:22:05.991                             : en:Chapter 08
00:24:19.958                             : en:Chapter 09
00:27:44.829                             : en:Chapter 10
00:29:07.912                             : en:Chapter 11
00:32:15.308                             : en:Chapter 12
00:35:18.407                             : en:Chapter 13
00:41:25.524                             : en:Chapter 14
00:47:04.696                             : en:Chapter 15
00:50:54.176                             : en:Chapter 16
00:54:23.885                             : en:Chapter 17
00:56:45.026                             : en:Chapter 18
01:01:42.615                             : en:Chapter 19
01:03:28.137                             : en:Chapter 20
01:08:58.217                             : en:Chapter 21
01:15:17.262                             : en:Chapter 22
01:18:56.982                             : en:Chapter 23
01:21:31.761                             : en:Chapter 24
01:24:31.816                             : en:Chapter 25
01:28:23.339                             : en:Chapter 26
01:33:14.672                             : en:Chapter 27
01:36:10.473                             : en:Chapter 28




1 个附件 售价 大小 下载 时间

Coco.2017.1080p.BluRay.REMUX.AVC.DTS-HD.MA.7.1-FGT[btbtt.me].torrent 0 金币 66.56K 5163 次 6月前

#1楼
发帖时间:2018-02-14 16:47:14   |   回复数:4
liyouchai
超凡入圣№
谢谢楼主分享资源
6月前 #2楼
blue23
隐世仙人♂
感谢楼主分享
6月前 #3楼
911degrees
隐世仙人♂
非常感谢,谢谢分享
5月前 #4楼
jokingcheung
一代宗师
谢谢分享
5月前 #5楼
游客组