aoloffline
版主

[2018] [欧美] [动画] [WEB-720P] [BT下载]乐高DC超级英雄:闪电侠 2018.720p.WEB-DL.DD5.1.H264-FGT 2.39GB

-->

Lego.DC.Comics.Super.Heroes.The.Flash.2018.720p.WEB-DL.DD5.1.H264-FGT

◎译  名 乐高DC超级英雄:闪电侠

◎片  名 Lego DC Comics Super Heroes: The Flash

◎年  代 2018

◎产  地 美国

◎类  别 科幻/动画

◎语  言 英语

◎上映日期 2018-02-13(美国)

◎IMDb评分  6.2/10 from 17 users

◎IMDb链接  http://www.imdb.com/title/tt7877382/

◎BT之家整理 http://www.btbtt.co 

◎片  长 78分钟

◎导  演 伊桑·斯波尔丁 Ethan Spaulding

◎主  演 詹姆斯·阿诺德·泰勒 James Arnold Taylor

      凯特·米库奇 Kate Micucci

      凯文·迈克尔·理查德森 Kevin Michael Richardson

      特罗伊·贝克 Troy Baker

      诺兰·诺斯 Nolan North

      格蕾·德丽斯勒 Grey DeLisle

      卡里·佩顿 Khary Payton

      德怀特·舒尔茨 Dwight Schultz

      艾瑞克·鲍扎 Eric Bauza

      汤姆·肯尼 Tom Kenny

      菲尔·拉马 Phil LaMarr

      瓦内萨·马歇尔 Vanessa Marshall

      迪·布拉雷·贝克尔 Dee Bradley Baker

      Jason Spisak

      Audrey Wasilewski


◎简  介


  Some actors reprise their roles from various DC media, including Nolan North as Superman and Troy Baker as Batman.


Video
ID                                       : 1
Format                                   : AVC
Format/Info                              : Advanced Video Codec
Format profile                           : High@L3.1
Format settings                          : 2 Ref Frames
Format settings, CABAC                   : No
Format settings, ReFrames                : 2 frames
Codec ID                                 : V_MPEG4/ISO/AVC
Duration                                 : 1 h 18 min
Bit rate                                 : 3 970 kb/s
Width                                    : 1 280 pixels
Height                                   : 718 pixels
Display aspect ratio                     : 16:9
Frame rate mode                          : Constant
Frame rate                               : 23.976 (23976/1000) FPS
Color space                              : YUV
Chroma subsampling                       : 4:2:0
Bit depth                                : 8 bits
Scan type                                : Progressive
Bits/(Pixel*Frame)                       : 0.180
Stream size                              : 2.17 GiB (91%)
Title                                    : Lego.DC.Comics.Super.Heroes.The.Flash.2018.720p.WEB-DL.DD5.1.H264-FGT
Language                                 : English
Default                                  : Yes
Forced                                   : No
Color range                              : Limited
Color primaries                          : BT.709
Transfer characteristics                 : BT.709
Matrix coefficients                      : BT.709

Audio
ID                                       : 2
Format                                   : AC-3
Format/Info                              : Audio Coding 3
Codec ID                                 : A_AC3
Duration                                 : 1 h 18 min
Bit rate mode                            : Constant
Bit rate                                 : 384 kb/s
Channel(s)                               : 6 channels
Channel positions                        : Front: L C R, Side: L R, LFE
Sampling rate                            : 48.0 kHz
Frame rate                               : 31.250 FPS (1536 SPF)
Bit depth                                : 16 bits
Compression mode                         : Lossy
Stream size                              : 215 MiB (9%)
Title                                    : Lego.DC.Comics.Super.Heroes.The.Flash.2018.720p.WEB-DL.DD5.1.H264-FGT
Language                                 : English
Service kind                             : Complete Main
Default                                  : Yes
Forced                                   : No

Text
ID                                       : 3
Format                                   : UTF-8
Codec ID                                 : S_TEXT/UTF8
Codec ID/Info                            : UTF-8 Plain Text
Duration                                 : 1 h 14 min
Bit rate                                 : 76 b/s
Count of elements                        : 1377
Stream size                              : 41.6 KiB (0%)
Language                                 : English
Default                                  : Yes
Forced                                   : No

Menu
00:00:00.000                             : en:1
00:10:31.000                             : en:2
00:20:56.000                             : en:3
00:34:27.000                             : en:4
00:44:50.000                             : en:5
00:51:53.000                             : en:6
01:00:27.000                             : en:7
01:07:35.000                             : en:8
01:15:24.000                             : en:9





1 个附件 售价 大小 下载 时间

Lego.DC.Comics.Super.Heroes.The.Flash.2018.720p.WEB-DL.DD5.1.H264-FGT[btbtt.me].torrent 0 金币 48.33K 1407 次 3月前

#1楼
发帖时间:2018-02-14 14:31:42   |   回复数:3
blue23
隐世仙人♂
感谢楼主分享
3月前 #2楼
liyouchai
超凡入圣№
谢谢楼主分享资源
3月前 #3楼
911degrees
超凡入圣№
非常感谢,谢谢分享
3月前 #4楼
游客组