aoloffline
版主

[更 早] [欧美] [喜剧] [WEB-1080P] [BT下载]复制娇妻 The.Stepford.Wives.2004.1080p.AMZN.WEBRip.DD5.1.x264-QOQ 8.1GB

-->

The.Stepford.Wives.2004.1080p.AMZN.WEBRip.DD5.1.x264-QOQ

◎译  名 复制娇妻/超完美娇妻/换妻俱乐部

◎片  名 The Stepford Wives

◎年  代 2004

◎产  地 美国

◎类  别 喜剧/科幻/惊悚

◎语  言 英语

◎上映日期 2004-10-07

◎IMDb评分  5.2/10 from 53,040 users

◎IMDb链接  http://www.imdb.com/title/tt0327162/

◎豆瓣评分 6.1/10 from 8,915 users

◎豆瓣链接 https://movie.douban.com/subject/1309179/

◎BT之家整理 http://www.btbtt.co 

◎片  长 93 分钟

◎导  演 弗兰克·奥兹 Frank Oz

◎主  演 妮可·基德曼 Nicole Kidman

      马修·布罗德里克 Matthew Broderick

      贝特·米德勒 Bette Midler

      格伦·克洛斯 Glenn Close

      克里斯托弗·沃肯 Christopher Walken

      罗杰·巴特 Roger Bart

      大卫·马歇尔·格兰特 David Marshall Grant

      乔恩·拉威茨 Jon Lovitz

      迪伦·哈蒂根 Dylan Hartigan

      Fallon Brooking

      菲丝·希尔 Faith Hill

      马特·马洛伊 Matt Malloy

      Kate Shindle

      Tom Riis Farrell

      罗丽·巴格莱 Lorri Bagley

      拉里·金 Larry King


◎简  介


  当从曼哈顿搬到高尚住宅区斯戴佛之后,乔安娜(妮可•基德曼 饰)与丈夫(马修•布罗德里克 饰)都准备好了新生活的开始。乔安娜本想打好与邻居之间的关系,可是一众邻居太太的性格都将近完美,让乔安娜感到她们都无法靠近。这群有钱的太太中只有一名叫芭比的太太例外,她是乔安娜眼中的正常人,她俩也成为了好友。

  其他太太们每天都忙着照顾自己的丈夫,对丈夫言听计从。乔安娜与芭比都感到十分好奇,为何邻居太太们似乎没有自己的脾气与喜好。

  于是她们决定一查究竟,调查结果让她们惊讶不已,有钱的男人竟然把自己的太太变成了机器人,以求他们的妻子都千依百顺。这些一半人类一半机器的太太们背后有着“公开的秘密”,这样的黑手,也逐渐伸向乔安娜与芭比,她们将如何应对呢?



Video
ID                                       : 1
Format                                   : AVC
Format/Info                              : Advanced Video Codec
Format profile                           : High@L4
Format settings                          : CABAC / 4 Ref Frames
Format settings, CABAC                   : Yes
Format settings, ReFrames                : 4 frames
Codec ID                                 : V_MPEG4/ISO/AVC
Duration                                 : 1 h 32 min
Bit rate mode                            : Variable
Bit rate                                 : 11.9 Mb/s
Maximum bit rate                         : 15.0 Mb/s
Width                                    : 1 920 pixels
Height                                   : 1 080 pixels
Display aspect ratio                     : 16:9
Frame rate mode                          : Constant
Frame rate                               : 23.976 (24000/1001) FPS
Color space                              : YUV
Chroma subsampling                       : 4:2:0
Bit depth                                : 8 bits
Scan type                                : Progressive
Bits/(Pixel*Frame)                       : 0.239
Stream size                              : 7.70 GiB (95%)
Default                                  : Yes
Forced                                   : No
Color range                              : Limited
Color primaries                          : BT.709
Transfer characteristics                 : BT.709
Matrix coefficients                      : BT.709

Audio
ID                                       : 2
Format                                   : E-AC-3
Format/Info                              : Enhanced Audio Coding 3
Codec ID                                 : A_EAC3
Duration                                 : 1 h 32 min
Bit rate mode                            : Constant
Bit rate                                 : 640 kb/s
Channel(s)                               : 6 channels
Channel positions                        : Front: L C R, Side: L R, LFE
Sampling rate                            : 48.0 kHz
Frame rate                               : 187.500 FPS (256 SPF)
Compression mode                         : Lossy
Stream size                              : 425 MiB (5%)
Language                                 : English
Service kind                             : Complete Main
Default                                  : Yes
Forced                                   : No

Text #1
ID                                       : 3
Format                                   : UTF-8
Codec ID                                 : S_TEXT/UTF8
Codec ID/Info                            : UTF-8 Plain Text
Duration                                 : 1 h 26 min
Bit rate                                 : 61 b/s
Count of elements                        : 1385
Stream size                              : 39.1 KiB (0%)
Language                                 : English
Default                                  : No
Forced                                   : No

Text #2
ID                                       : 4
Format                                   : UTF-8
Codec ID                                 : S_TEXT/UTF8
Codec ID/Info                            : UTF-8 Plain Text
Duration                                 : 1 h 26 min
Bit rate                                 : 66 b/s
Count of elements                        : 1520
Stream size                              : 42.4 KiB (0%)
Title                                    : SDH
Language                                 : English
Default                                  : No
Forced                                   : No




1 个附件 售价 大小 下载 时间

The.Stepford.Wives.2004.1080p.AMZN.WEBRip.DD5.1.x264-QOQ[btbtt.me].torrent 0 金币 81.75K 1456 次 6月前

#1楼
发帖时间:2018-02-14 14:30:09   |   回复数:4
blue23
隐世仙人♂
感谢楼主分享
6月前 #2楼
liyouchai
超凡入圣№
谢谢楼主分享资源
6月前 #3楼
kola13
武林高手
十分感谢分享
6月前 #4楼
911degrees
隐世仙人♂
非常感谢,谢谢分享
5月前 #5楼
游客组