aoloffline
版主

[2006] [欧美] [剧情] [WEB-1080P] [BT下载]半个尼尔森 Half.Nelson.2006.1080p.AMZN.WEBRip.DDP2.0.x264-monkee 10.3GB

-->

Half.Nelson.2006.1080p.AMZN.WEBRip.DDP2.0.x264-monkee

◎译  名 半个尼尔森/我的左派老师/我的毒虫老师/单臂扼颈

◎片  名 Half Nelson

◎年  代 2006

◎产  地 美国

◎类  别 剧情

◎语  言 英语

◎上映日期 2006-08-11

◎IMDb评分  7.2/10 from 76,840 users

◎IMDb链接  http://www.imdb.com/title/tt0468489/

◎豆瓣评分 7.6/10 from 5,350 users

◎豆瓣链接 https://movie.douban.com/subject/1850942/

◎BT之家整理 http://www.btbtt.co 

◎片  长 USA: 106 分钟(Sundance Film Festival)

◎导  演 瑞安·弗雷克 Ryan Fleck

◎主  演 瑞恩·高斯林 Ryan Gosling

      安东尼·麦凯 Anthony Mackie

      莎莉卡·艾普斯 Shareeka Epps

      Jeff Lima

      Nathan Corbett


◎简  介


  白人历史教师丹•邓恩(瑞恩•高斯林 饰),在纽约布鲁克林一家破旧的公立中学教书,他的学生多是黑人。丹有激情和创造力,热爱学生,不遵循官方教学大纲,相信黑格尔辩证法,认为历史本质由相反力作用而成。他使得纸页间枯燥的历史生动鲜活,鼓励学生思考和分析历史,及自己周遍世界的运作法则,学生成为丹存活于社会的救生索。晚上,他是不可救药的瘾君子。

  这种分裂的生活没有能持续多久,丹某次在空无一人的女更衣室吸毒而虚脱,被他的黑人女学生德丽(莎莉卡•艾普斯 饰)发现。共同保守的阴暗秘密,拉近了他们的关系,也改变了各自的生活。


◎获奖情况


  第79届奥斯卡金像奖  (2007)

  最佳男主角(提名) 瑞恩·高斯林


  第59届洛迦诺国际电影节  (2006)

  金豹奖(提名) 瑞安·弗雷克

  评审团特别奖 Alex Orlovsky / Lynette Howell / Rosanne Korenberg / 安娜·波顿 / 瑞安·弗雷克 / Jamie Patricof


  第7届美国电影学会奖  (2006)

  年度佳片


Video
ID                                       : 1
Format                                   : AVC
Format/Info                              : Advanced Video Codec
Format profile                           : High@L4
Format settings                          : CABAC / 4 Ref Frames
Format settings, CABAC                   : Yes
Format settings, ReFrames                : 4 frames
Codec ID                                 : V_MPEG4/ISO/AVC
Duration                                 : 1 h 46 min
Bit rate mode                            : Variable
Bit rate                                 : 13.6 Mb/s
Maximum bit rate                         : 15.0 Mb/s
Width                                    : 1 920 pixels
Height                                   : 1 080 pixels
Display aspect ratio                     : 16:9
Frame rate mode                          : Constant
Frame rate                               : 23.976 (24000/1001) FPS
Color space                              : YUV
Chroma subsampling                       : 4:2:0
Bit depth                                : 8 bits
Scan type                                : Progressive
Bits/(Pixel*Frame)                       : 0.273
Stream size                              : 10.1 GiB (98%)
Default                                  : Yes
Forced                                   : No
Color range                              : Limited
Color primaries                          : BT.709
Transfer characteristics                 : BT.709
Matrix coefficients                      : BT.709

Audio
ID                                       : 2
Format                                   : E-AC-3
Format/Info                              : Enhanced Audio Coding 3
Codec ID                                 : A_EAC3
Duration                                 : 1 h 46 min
Bit rate mode                            : Constant
Bit rate                                 : 224 kb/s
Channel(s)                               : 2 channels
Channel positions                        : Front: L R
Sampling rate                            : 48.0 kHz
Frame rate                               : 187.500 FPS (256 SPF)
Compression mode                         : Lossy
Stream size                              : 171 MiB (2%)
Language                                 : English
Service kind                             : Complete Main
Default                                  : Yes
Forced                                   : No





1 个附件 售价 大小 下载 时间

Half.Nelson.2006.1080p.AMZN.WEBRip.DDP2.0.x264-monkee[btbtt.me].torrent 0 金币 52.03K 903 次 6月前

#1楼
发帖时间:2018-02-14 14:28:41   |   回复数:3
blue23
隐世仙人♂
感谢楼主分享
6月前 #2楼
liyouchai
超凡入圣№
谢谢楼主分享资源
6月前 #3楼
911degrees
隐世仙人♂
非常感谢,谢谢分享
5月前 #4楼
游客组