aoloffline
版主

[2016] [欧美] [剧情] [WEB-1080P] [BT下载]EMO音乐剧 Emo.the.Musical.2016.1080p.NF.WEBRip.DD5.1.x264-SiGMA 2.6GB

-->

Emo.the.Musical.2016.1080p.NF.WEBRip.DD5.1.x264-SiGMA

◎译  名 EMO音乐剧/厭世青春戀習曲

◎片  名 EMO the Musical

◎年  代 2016

◎产  地 澳大利亚

◎类  别 同性/音乐

◎语  言 英语

◎上映日期 2016-08-13(墨尔本国际电影节)

◎IMDb评分  6.6/10 from 268 users

◎IMDb链接  http://www.imdb.com/title/tt5460068/

◎BT之家整理 http://www.btbtt.co 

◎片  长 94分钟

◎导  演 Neil Triffett

◎主  演 Benson Jack Anthony

      Jordan Hare

      Rahart Adams

      Jon Prasida

      Lucy Barrett

      Ben Bennett

      Craig Hyde-Smith

      Bridie Carter

      Geraldine Viswanathan

      Kevin Clayette


◎简  介


  病气少年伊森酷爱 Emo 庞克乐,因故被迫转学,加入怪咖云集的反骨 摇滚团,却意外爱上校园死对头福音乐团的萌萌美少女。在爱情与同侪 间拉扯的他,该如何抉择?负能量爆表的青春音乐喜剧,宛如迪斯尼《歌舞青春》暗黑版,犀利调侃高校小圈圈文化和标签框架,以厌世颓废的 词曲,谱出勇敢做自己的生存之道!



Video
ID                                       : 1
Format                                   : AVC
Format/Info                              : Advanced Video Codec
Format profile                           : Main@L4
Format settings                          : CABAC / 3 Ref Frames
Format settings, CABAC                   : Yes
Format settings, ReFrames                : 3 frames
Codec ID                                 : V_MPEG4/ISO/AVC
Duration                                 : 1 h 34 min
Bit rate mode                            : Variable
Bit rate                                 : 3 650 kb/s
Maximum bit rate                         : 5 475 kb/s
Width                                    : 1 920 pixels
Height                                   : 1 080 pixels
Display aspect ratio                     : 16:9
Frame rate mode                          : Constant
Frame rate                               : 23.976 (24000/1001) FPS
Color space                              : YUV
Chroma subsampling                       : 4:2:0
Bit depth                                : 8 bits
Scan type                                : Progressive
Bits/(Pixel*Frame)                       : 0.073
Stream size                              : 2.38 GiB (90%)
Writing library                          : x264 core 148
Encoding settings                        : cabac=1 / ref=3 / deblock=1:0:0 / analyse=0x1:0x111 / me=umh / subme=10 / psy=1 / psy_rd=1.00:0.00 / mixed_ref=1 / me_range=24 / chroma_me=1 / trellis=2 / 8x8dct=0 / cqm=0 / deadzone=21,11 / fast_pskip=1 / chroma_qp_offset=-2 / threads=8 / lookahead_threads=1 / sliced_threads=0 / nr=0 / decimate=1 / interlaced=0 / bluray_compat=0 / stitchable=1 / constrained_intra=0 / bframes=2 / b_pyramid=0 / b_adapt=2 / b_bias=0 / direct=3 / weightb=1 / open_gop=0 / weightp=2 / keyint=48 / keyint_min=25 / scenecut=0 / intra_refresh=0 / rc_lookahead=48 / rc=2pass / mbtree=1 / bitrate=3650 / ratetol=1.0 / qcomp=0.50 / qpmin=6 / qpmax=51 / qpstep=4 / cplxblur=20.0 / qblur=0.5 / vbv_maxrate=5475 / vbv_bufsize=7300 / nal_hrd=vbr / filler=0 / ip_ratio=1.40 / aq=1:1.00
Default                                  : Yes
Forced                                   : No

Audio
ID                                       : 2
Format                                   : AC-3
Format/Info                              : Audio Coding 3
Codec ID                                 : A_AC3
Duration                                 : 1 h 34 min
Bit rate mode                            : Constant
Bit rate                                 : 384 kb/s
Channel(s)                               : 6 channels
Channel positions                        : Front: L C R, Side: L R, LFE
Sampling rate                            : 48.0 kHz
Frame rate                               : 31.250 FPS (1536 SPF)
Bit depth                                : 16 bits
Compression mode                         : Lossy
Stream size                              : 259 MiB (10%)
Language                                 : English
Service kind                             : Complete Main
Default                                  : Yes
Forced                                   : No

Text #1
ID                                       : 3
Format                                   : UTF-8
Codec ID                                 : S_TEXT/UTF8
Codec ID/Info                            : UTF-8 Plain Text
Duration                                 : 1 h 33 min
Bit rate                                 : 75 b/s
Count of elements                        : 1477
Stream size                              : 51.3 KiB (0%)
Title                                    : SDH
Language                                 : English
Default                                  : No
Forced                                   : No

Text #2
ID                                       : 4
Format                                   : UTF-8
Codec ID                                 : S_TEXT/UTF8
Codec ID/Info                            : UTF-8 Plain Text
Duration                                 : 1 h 32 min
Bit rate                                 : 67 b/s
Count of elements                        : 1380
Stream size                              : 46.0 KiB (0%)
Language                                 : Spanish
Default                                  : No
Forced                                   : No

Text #3
ID                                       : 5
Format                                   : UTF-8
Codec ID                                 : S_TEXT/UTF8
Codec ID/Info                            : UTF-8 Plain Text
Duration                                 : 1 h 32 min
Bit rate                                 : 66 b/s
Count of elements                        : 1375
Stream size                              : 45.3 KiB (0%)
Language                                 : French
Default                                  : No
Forced                                   : No

Text #4
ID                                       : 6
Format                                   : UTF-8
Codec ID                                 : S_TEXT/UTF8
Codec ID/Info                            : UTF-8 Plain Text
Duration                                 : 1 h 32 min
Bit rate                                 : 70 b/s
Count of elements                        : 1366
Stream size                              : 48.0 KiB (0%)
Language                                 : German
Default                                  : No
Forced                                   : No

Text #5
ID                                       : 7
Format                                   : UTF-8
Codec ID                                 : S_TEXT/UTF8
Codec ID/Info                            : UTF-8 Plain Text
Duration                                 : 1 h 32 min
Bit rate                                 : 68 b/s
Count of elements                        : 1359
Stream size                              : 46.4 KiB (0%)
Language                                 : Italian
Default                                  : No
Forced                                   : No





1 个附件 售价 大小 下载 时间

Emo.the.Musical.2016.1080p.NF.WEBRip.DD5.1.x264-SiGMA[btbtt.me].torrent 0 金币 53.13K 315 次 4天前

#1楼
发帖时间:2018-02-14 14:27:22   |   回复数:2
blue23
隐世仙人♂
感谢楼主分享
4天前 #2楼
liyouchai
超凡入圣№
谢谢楼主分享资源
4天前 #3楼
游客组