aoloffline
版主

[2017] [欧美] [剧情] [WEB-1080P] [BT下载]布拉文 Braven.2018.1080p.AMZN.WEBRip.DDP5.1.x264-SiGMA 5.27GB

-->

Braven.2018.1080p.AMZN.WEBRip.DDP5.1.x264-SiGMA

◎译  名 布拉文/以勇气为名(台)

◎片  名 Braven

◎年  代 2018

◎产  地 加拿大

◎类  别 剧情/动作

◎语  言 英语

◎上映日期 2018-02-02(美国)

◎IMDb评分  6.7/10 from 5,206 users

◎IMDb链接  http://www.imdb.com/title/tt5001754/

◎豆瓣评分 6.0/10 from 238 users

◎豆瓣链接 https://movie.douban.com/subject/26792833/

◎BT之家整理 http://www.btbtt.co 

◎片  长 94分钟

◎导  演 林·奥汀 Lin Oeding

◎主  演 杰森·莫玛 Jason Momoa

      史蒂芬·朗 Stephen Lang

      扎恩·迈克拉农 Zahn McClarnon

      加瑞特·迪拉胡特 Garret Dillahunt

      萨拉·贝克 Sala Baker

      布莱登·佛雷切 Brendan Fletcher

      詹姆斯·哈尔维·瓦德 James Harvey Ward

      弗雷泽·艾奇逊 Fraser Aitcheson

      吉尔·瓦格纳 Jill Wagner

      Teach Grant

      泰·亚历山大 Tye Alexander

      Sasha Rossof

      Steve O'Connell


◎简  介


  影片讲述了“海王”饰演的乔·布拉文与父亲(史蒂芬·朗)共渡狩猎假期,没想到竟踏入毒贩藏匿海洛因的窝点,面对疯狂的毒贩,父子二人只能与他们展开殊死搏斗。


Video
ID                                       : 1
Format                                   : AVC
Format/Info                              : Advanced Video Codec
Format profile                           : High@L4
Format settings                          : CABAC / 4 Ref Frames
Format settings, CABAC                   : Yes
Format settings, ReFrames                : 4 frames
Codec ID                                 : V_MPEG4/ISO/AVC
Duration                                 : 1 h 33 min
Bit rate mode                            : Variable
Bit rate                                 : 7 393 kb/s
Maximum bit rate                         : 15.0 Mb/s
Width                                    : 1 920 pixels
Height                                   : 816 pixels
Display aspect ratio                     : 2.35:1
Frame rate mode                          : Constant
Frame rate                               : 23.976 (24000/1001) FPS
Color space                              : YUV
Chroma subsampling                       : 4:2:0
Bit depth                                : 8 bits
Scan type                                : Progressive
Bits/(Pixel*Frame)                       : 0.197
Stream size                              : 4.85 GiB (92%)
Default                                  : Yes
Forced                                   : No
Color range                              : Limited
Color primaries                          : BT.709
Transfer characteristics                 : BT.709
Matrix coefficients                      : BT.709

Audio
ID                                       : 2
Format                                   : E-AC-3
Format/Info                              : Enhanced Audio Coding 3
Codec ID                                 : A_EAC3
Duration                                 : 1 h 33 min
Bit rate mode                            : Constant
Bit rate                                 : 640 kb/s
Channel(s)                               : 6 channels
Channel positions                        : Front: L C R, Side: L R, LFE
Sampling rate                            : 48.0 kHz
Frame rate                               : 187.500 FPS (256 SPF)
Compression mode                         : Lossy
Stream size                              : 430 MiB (8%)
Language                                 : English
Service kind                             : Complete Main
Default                                  : Yes
Forced                                   : No

Text
ID                                       : 3
Format                                   : UTF-8
Codec ID                                 : S_TEXT/UTF8
Codec ID/Info                            : UTF-8 Plain Text
Duration                                 : 1 h 25 min
Bit rate                                 : 36 b/s
Count of elements                        : 922
Stream size                              : 22.6 KiB (0%)
Title                                    : English
Language                                 : English
Default                                  : No
Forced                                   : No




1 个附件 售价 大小 下载 时间

Braven.2018.1080p.AMZN.WEBRip.DDP5.1.x264-SiGMA[btbtt.me].torrent 0 金币 53.25K 973 次 3月前

#1楼
发帖时间:2018-02-14 14:25:58   |   回复数:3
blue23
隐世仙人♂
感谢楼主分享
3月前 #2楼
liyouchai
超凡入圣№
谢谢楼主分享资源
3月前 #3楼
911degrees
超凡入圣№
非常感谢,谢谢分享
3月前 #4楼
游客组