5iwy
小有名气

[2015] [内地] [纪实] [全集] 一本书一座城市 全8期 ZJTV Book E01-08 HDTV 720p x264-NoPA

-->

image

◎英文片名  One Book One City
◎中文片名  一本书,一座城
◎年  代  2015
◎地  区  大陆
◎剧集类型  纪录片
◎语  言  国语
◎上映日期  2015
◎单集片长  25m:0s
◎集  数  8
◎视频尺寸  1280*720
◎导  演  浙江卫视
◎编  剧  李晗
◎演  员  李晗

◎简  介

浙江卫视每周一晚23:10播出由主持人李晗制作的8集系列人文纪录片《一本书一座城》,李晗将巡着书香,寻迹伦敦、巴黎、柏林、北京、上海、杭州、香港、台北这8座城市,分别以一本书为契机切入这座城市,去探索城市里人的故事,去审视产生这部作品的城市空间及其历史文化。

※※※※※※※ Reliese Info ※※※※※※※
ENCODER.......:  Lwi@ NoTA                   (Just for Sharing)

RELEASE.DATE..: 2015.05.30

SOURCE........: ZJTV Book E01-E08 1080i HDTV H.264 DD2.0-NGB 

image

image

image


Video
ID                             : 1
Format                         : AVC
Format/Info                    : Advanced Video Codec
Format profile                 : High@L4.0
Format settings, CABAC         : Yes
Format settings, ReFrames      : 9 frames
Codec ID                       : avc1
Codec ID/Info                  : Advanced Video Coding
Duration                       : 24mn 59s
Bit rate                       : 2 828 Kbps
Maximum bit rate               : 7 140 Kbps
Width                          : 1 280 pixels
Height                         : 720 pixels
Display aspect ratio           : 16:9
Frame rate mode                : Constant
Frame rate                     : 25.000 fps
Color space                    : YUV
Chroma subsampling             : 4:2:0
Bit depth                      : 8 bits
Scan type                      : Progressive
Bits/(Pixel*Frame)             : 0.123
Stream size                    : 506 MiB (92%)
Writing library                : x264 core 142 r2431 ac76440
Encoding settings              : cabac=1 / ref=9 / deblock=1:-1:-1 / analyse=0x3:0x113 / me=hex / subme=7 / psy=1 / psy_rd=1.05:0.12 / mixed_ref=1 / me_range=16 / chroma_me=1 / trellis=1 / 8x8dct=1 / cqm=0 / deadzone=21,11 / fast_pskip=0 / chroma_qp_offset=-5 / threads=4 / lookahead_threads=1 / sliced_threads=0 / nr=0 / decimate=1 / interlaced=0 / bluray_compat=0 / constrained_intra=0 / bframes=4 / b_pyramid=2 / b_adapt=2 / b_bias=0 / direct=1 / weightb=1 / open_gop=0 / weightp=2 / keyint=250 / keyint_min=25 / scenecut=40 / intra_refresh=0 / rc_lookahead=49 / rc=crf / mbtree=0 / crf=19.8 / qcomp=0.60 / qpmin=0 / qpmax=69 / qpstep=4 / vbv_maxrate=4500 / vbv_bufsize=3900 / crf_max=0.0 / nal_hrd=none / filler=0 / ip_ratio=1.40 / pb_ratio=1.30 / aq=2:0.70
Encoded date                   : UTC 2015-05-30 01:59:53
Tagged date                    : UTC 2015-05-30 02:00:28

Audio
ID                             : 2
Format                         : AAC
Format/Info                    : Advanced Audio Codec
Format profile                 : LC
Codec ID                       : 40
Duration                       : 24mn 59s
Bit rate mode                  : Variable
Bit rate                       : 256 Kbps
Maximum bit rate               : 279 Kbps
Channel(s)                     : 2 channels
Channel positions              : Front: L R
Sampling rate                  : 48.0 KHz
Compression mode               : Lossy
Stream size                    : 45.8 MiB (8%)
Encoded date                   : UTC 2015-05-29 22:57:30
Tagged date                    : UTC 2015-05-30 02:00:28


1 个附件 售价 大小 下载 时间

ZJTV.Book.E01-08.HDTV.720p.x264-NoPA.torrent 0 金币 21.85K 7125 次 2017-5-10

#1楼
发帖时间:2017-05-10 12:48:39   |   回复数:4
911degrees
隐世仙人♂
非常感谢,谢谢分享
2017-5-10 #2楼
chulps
一代宗师
good ... Thanks a lot ! 感谢楼主 ! 感谢 !
2017-5-11 #3楼
smilenet
小有名气
非常感谢,不错的资源。
2017-10-7 #4楼
紫紫小仙女
一代宗师
感谢楼主分享
2017-10-16 #5楼
游客组